<?xml version="1.0" standalone="no"?>
<!DOCTYPE svg PUBLIC "-//W3C//DTD SVG 1.1//EN" "http://www.w3.org/Graphics/SVG/1.1/DTD/svg11.dtd" >
<svg>
<metadata>
Created by FontForge 20090622 at Fri Mar 29 07:28:08 2019
 By deploy user
Copyright (c) 2017, Aalgolab
</metadata>
<defs>
<font id="Aalfons-Regular" horiz-adv-x="0" >
  <font-face 
    font-family="Aalfons"
    font-weight="400"
    font-stretch="normal"
    units-per-em="1000"
    panose-1="2 2 6 3 5 4 5 2 3 4"
    ascent="762"
    descent="-238"
    x-height="473"
    cap-height="657"
    bbox="-948 -1641 3072 2627"
    underline-thickness="50"
    underline-position="-100"
    unicode-range="U+0020-U+10FFFD"
  />
<missing-glyph horiz-adv-x="364" 
d="M33 0v666h265v-666h-265zM66 33h199v600h-199v-600z" />
    <glyph glyph-name="f_f" unicode="ff" horiz-adv-x="609" 
d="M26 473h76q0 58 7 92.5t26 68.5q44 75 137 75q50 0 81.5 -19t31.5 -51q0 -21 -11.5 -32.5t-29.5 -11.5t-29 9t-28 32q-16 21 -25 28t-24 7q-28 0 -40 -25.5t-12 -87.5v-85h218q0 110 32 167q22 37 52.5 55t80.5 18t81 -18.5t31 -51.5q0 -21 -11.5 -32t-29.5 -11
q-25 0 -52.5 38t-52.5 38q-27 0 -37.5 -25t-10.5 -89v-89h122v-42h-122v-312q0 -57 19.5 -73.5t82.5 -16.5v-29h-269v29q55 0 69.5 15.5t14.5 74.5v312h-218v-312q0 -57 18 -73.5t74 -16.5v-29h-260v29q55 0 69.5 15.5t14.5 74.5v312h-76v42z" />
    <glyph glyph-name="f_i" unicode="fi" horiz-adv-x="592" 
d="M569 29v-29h-230v29q47 0 58.5 14.5t11.5 57.5v277q0 46 -28 53h-194v-312q0 -57 16.5 -74t69.5 -17v-28h-255v28q55 0 69.5 16t14.5 75v312h-76v42h76q0 106 37 165q50 79 182 79q68 0 107.5 -20t39.5 -61q0 -21 -13 -33.5t-35 -12.5q-21 0 -32.5 13t-23.5 40
q-14 38 -68 38t-81.5 -34t-27.5 -113v-61h172l107 9h26v-381q0 -45 12.5 -58.5t64.5 -13.5z" />
    <glyph glyph-name="f_l" unicode="fl" horiz-adv-x="604" 
d="M580 29v-29h-230v29q47 0 58.5 13.5t11.5 58.5v497q-24 78 -113 78q-122 0 -122 -146v-57h119v-42h-119v-312q0 -57 18 -73.5t74 -16.5v-29h-259v29q55 0 69.5 15.5t14.5 74.5v312h-76v42h76q0 60 8.5 97t31.5 69q59 74 184 74q67 0 113 -22l44 15h21v-605
q0 -46 12.5 -59t63.5 -13z" />
    <glyph glyph-name="f_f_i" unicode="ffi" horiz-adv-x="894" 
d="M871 29v-29h-230v29q47 0 58.5 14.5t11.5 57.5v277q0 46 -28 53h-194v-312q0 -57 16.5 -74t69.5 -17v-28h-255v28q55 0 69.5 16t14.5 75v312h-218v-312q0 -57 18 -73.5t74 -16.5v-29h-260v29q55 0 69.5 15.5t14.5 74.5v312h-76v42h76q0 58 7 92.5t26 68.5q44 75 137 75
q50 0 81.5 -19t31.5 -51q0 -21 -11.5 -32.5t-29.5 -11.5t-29 9t-28 32q-16 21 -25 28t-24 7q-28 0 -40 -25.5t-12 -87.5v-85h218q0 106 37 165q50 79 182 79q68 0 107.5 -20t39.5 -61q0 -21 -13 -33.5t-35 -12.5q-21 0 -32.5 13t-23.5 40q-14 38 -68 38t-81.5 -34
t-27.5 -113v-61h172l107 9h26v-381q0 -45 12.5 -58.5t64.5 -13.5z" />
    <glyph glyph-name="f_f_l" unicode="ffl" horiz-adv-x="906" 
d="M882 29v-29h-230v29q47 0 58.5 13.5t11.5 58.5v497q-24 78 -113 78q-122 0 -122 -146v-57h119v-42h-119v-312q0 -57 18 -73.5t74 -16.5v-29h-259v29q55 0 69.5 15.5t14.5 74.5v312h-218v-312q0 -57 18 -73.5t74 -16.5v-29h-260v29q55 0 69.5 15.5t14.5 74.5v312h-76v42
h76q0 58 7 92.5t26 68.5q44 75 137 75q50 0 81.5 -19t31.5 -51q0 -21 -11.5 -32.5t-29.5 -11.5t-29 9t-28 32q-16 21 -25 28t-24 7q-28 0 -40 -25.5t-12 -87.5v-85h218q0 60 8.5 97t31.5 69q59 74 184 74q67 0 113 -22l44 15h21v-605q0 -46 12.5 -59t63.5 -13z" />
    <glyph glyph-name="f_b" unicode="fb" horiz-adv-x="865" 
d="M504 706v-306h3q71 85 155 85q73 0 120.5 -62.5t47.5 -159.5q0 -131 -66.5 -202t-174.5 -71q-92 0 -169 40v568q-24 78 -113 78q-122 0 -122 -146v-57h119v-42h-119v-312q0 -57 18 -73.5t74 -16.5v-29h-259v29q55 0 69.5 15.5t14.5 74.5v312h-76v42h76q0 60 8.5 97
t31.5 69q59 74 184 74q67 0 113 -22l44 15h21zM504 356v-278q33 -47 102 -47t101 55t32 145q0 186 -121 186q-34 0 -65.5 -19.5t-48.5 -41.5z" />
    <glyph glyph-name="f_f_b" unicode="ffb" horiz-adv-x="1167" 
d="M806 706v-306h3q71 85 155 85q73 0 120.5 -62.5t47.5 -159.5q0 -131 -66.5 -202t-174.5 -71q-92 0 -169 40v568q-24 78 -113 78q-122 0 -122 -146v-57h119v-42h-119v-312q0 -57 18 -73.5t74 -16.5v-29h-259v29q55 0 69.5 15.5t14.5 74.5v312h-218v-312q0 -57 18 -73.5
t74 -16.5v-29h-260v29q55 0 69.5 15.5t14.5 74.5v312h-76v42h76q0 58 7 92.5t26 68.5q44 75 137 75q50 0 81.5 -19t31.5 -51q0 -21 -11.5 -32.5t-29.5 -11.5t-29 9t-28 32q-16 21 -25 28t-24 7q-28 0 -40 -25.5t-12 -87.5v-85h218q0 60 8.5 97t31.5 69q59 74 184 74
q67 0 113 -22l44 15h21zM806 356v-278q33 -47 102 -47t101 55t32 145q0 186 -121 186q-34 0 -65.5 -19.5t-48.5 -41.5z" />
    <glyph glyph-name="f_f_h" unicode="ffh" horiz-adv-x="1198" 
d="M806 359v-262q0 -40 12 -54t62 -14v-29h-228v29q41 0 55.5 12t14.5 52v505q-24 78 -113 78q-122 0 -122 -146v-57h119v-42h-119v-312q0 -57 18 -73.5t74 -16.5v-29h-259v29q55 0 69.5 15.5t14.5 74.5v312h-218v-312q0 -57 18 -73.5t74 -16.5v-29h-260v29q55 0 69.5 15.5
t14.5 74.5v312h-76v42h76q0 58 7 92.5t26 68.5q44 75 137 75q50 0 81.5 -19t31.5 -51q0 -21 -11.5 -32.5t-29.5 -11.5t-29 9t-28 32q-16 21 -25 28t-24 7q-28 0 -40 -25.5t-12 -87.5v-85h218q0 60 8.5 97t31.5 69q59 74 184 74q67 0 113 -22l43 15h22v-303h3q47 44 84 63
t76 19q134 0 134 -185v-199q0 -42 14.5 -57t60.5 -15v-29h-232v29q49 0 61.5 14t12.5 54v173q0 73 -18 112t-74 39q-54 0 -122 -62z" />
    <glyph glyph-name="f_f_j" unicode="ffj" horiz-adv-x="874" 
d="M794 482v-484q0 -119 -42 -176t-130 -57q-49 0 -77.5 19.5t-28.5 52.5q0 19 12 30.5t32 11.5q24 0 49.5 -35t48.5 -35q34 0 43.5 34.5t9.5 124.5v405q0 31 -7.5 44t-29.5 14h-185v-312q0 -57 16.5 -74t69.5 -17v-28h-255v28q55 0 69.5 16t14.5 75v312h-218v-312
q0 -57 18 -73.5t74 -16.5v-29h-260v29q55 0 69.5 15.5t14.5 74.5v312h-76v42h76q0 58 7 92.5t26 68.5q44 75 137 75q50 0 81.5 -19t31.5 -51q0 -21 -11.5 -32.5t-29.5 -11.5t-29 9t-28 32q-16 21 -25 28t-24 7q-28 0 -40 -25.5t-12 -87.5v-85h218q0 106 37 165q50 79 182 79
q68 0 107.5 -20t39.5 -61q0 -21 -13 -33.5t-35 -12.5q-21 0 -32.5 13t-23.5 40q-14 38 -68 38t-81.5 -34t-27.5 -113v-61h171l107 9h27z" />
    <glyph glyph-name="f_f_k" unicode="ffk" horiz-adv-x="1164" 
d="M1160 0h-220v29q38 0 38 12q0 13 -11 24l-156 178h-6v-152q0 -39 13.5 -50.5t61.5 -11.5v-29h-229v29q45 0 58 12.5t13 53.5v503q-24 78 -113 78q-122 0 -122 -146v-57h119v-42h-119v-312q0 -57 18 -73.5t74 -16.5v-29h-259v29q55 0 69.5 15.5t14.5 74.5v312h-218v-312
q0 -57 18 -73.5t74 -16.5v-29h-260v29q55 0 69.5 15.5t14.5 74.5v312h-76v42h76q0 58 7 92.5t26 68.5q44 75 137 75q50 0 81.5 -19t31.5 -51q0 -21 -11.5 -32.5t-29.5 -11.5t-29 9t-28 32q-16 21 -25 28t-24 7q-28 0 -40 -25.5t-12 -87.5v-85h218q0 60 8.5 97t31.5 69
q59 74 184 74q67 0 113 -22l43 15h21v-441h6l129 128q17 17 17 33q0 17 -49 18v29h217v-29q-47 0 -75.5 -18.5t-121.5 -99.5l-49 -41l175 -198q35 -39 54 -48.5t52 -9.5v-29z" />
    <glyph glyph-name="f_h" unicode="fh" horiz-adv-x="896" 
d="M504 359v-262q0 -40 12 -54t62 -14v-29h-228v29q41 0 55.5 12t14.5 52v505q-24 78 -113 78q-122 0 -122 -146v-57h119v-42h-119v-312q0 -57 18 -73.5t74 -16.5v-29h-259v29q55 0 69.5 15.5t14.5 74.5v312h-76v42h76q0 60 8.5 97t31.5 69q59 74 184 74q67 0 113 -22l43 15
h22v-303h3q47 44 84 63t76 19q134 0 134 -185v-199q0 -42 14.5 -57t60.5 -15v-29h-232v29q49 0 61.5 14t12.5 54v173q0 73 -18 112t-74 39q-54 0 -122 -62z" />
    <glyph glyph-name="f_j" unicode="fj" horiz-adv-x="572" 
d="M492 482v-484q0 -119 -42 -176t-130 -57q-49 0 -77.5 19.5t-28.5 52.5q0 19 12 30.5t32 11.5q24 0 49.5 -35t48.5 -35q34 0 43.5 34.5t9.5 124.5v405q0 31 -7.5 44t-29.5 14h-185v-312q0 -57 16.5 -74t69.5 -17v-28h-255v28q55 0 69.5 16t14.5 75v312h-76v42h76
q0 106 37 165q50 79 182 79q68 0 107.5 -20t39.5 -61q0 -21 -13 -33.5t-35 -12.5q-21 0 -32.5 13t-23.5 40q-14 38 -68 38t-81.5 -34t-27.5 -113v-61h171l107 9h27z" />
    <glyph glyph-name="f_k" unicode="fk" horiz-adv-x="862" 
d="M858 0h-220v29q38 0 38 12q0 13 -11 24l-156 178h-6v-152q0 -39 13.5 -50.5t61.5 -11.5v-29h-229v29q45 0 58 12.5t13 53.5v503q-24 78 -113 78q-122 0 -122 -146v-57h119v-42h-119v-312q0 -57 18 -73.5t74 -16.5v-29h-259v29q55 0 69.5 15.5t14.5 74.5v312h-76v42h76
q0 60 8.5 97t31.5 69q59 74 184 74q67 0 113 -22l43 15h21v-441h6l129 128q17 17 17 33q0 17 -49 18v29h217v-29q-47 0 -75.5 -18.5t-121.5 -99.5l-49 -41l175 -198q35 -39 54 -48.5t52 -9.5v-29z" />
    <glyph glyph-name=".notdef" horiz-adv-x="364" 
d="M33 0v666h265v-666h-265zM66 33h199v600h-199v-600z" />
    <glyph glyph-name=".null" 
 />
    <glyph glyph-name="nonmarkingreturn" horiz-adv-x="333" 
 />
    <glyph glyph-name="space" unicode=" " horiz-adv-x="256" 
 />
    <glyph glyph-name="exclam" unicode="!" horiz-adv-x="250" 
d="M106 170l-30 368q-4 56 -4 65q0 66 53 66t53 -68q0 -29 -4 -63l-32 -368h-36zM184 49q0 -24 -16 -40.5t-44 -16.5q-19 0 -32 7.5t-19.5 20.5t-6.5 30q0 26 16 43.5t42 17.5q19 0 33 -8.5t20.5 -22.5t6.5 -31z" />
    <glyph glyph-name="quotedbl" unicode="&#x22;" horiz-adv-x="334" 
d="M53 504l-1 202h88v-18l-49 -184h-38zM200 504l-2 202h89v-18l-49 -184h-38z" />
    <glyph glyph-name="numbersign" unicode="#" horiz-adv-x="573" 
d="M540 395h-119l-22 -143h120v-40h-127l-25 -180h-48l28 180h-158l-29 -180h-47l29 180h-110v40h116l23 143h-115v41h120l30 185l48 1l-30 -186h156l28 185h48l-30 -185h114v-41zM373 395h-155l-23 -143h158z" />
    <glyph glyph-name="dollar" unicode="$" horiz-adv-x="495" 
d="M267 602v-227l16 -8q32 -16 53 -28t47 -31.5t41.5 -38.5t26 -46t10.5 -57q0 -85 -51 -123t-143 -50v-86h-43v86q-110 0 -189 47v152h29q15 -84 55 -122.5t105 -38.5v257l-17 10q-92 49 -130 90t-38 101q0 70 54.5 108t130.5 42v66h43v-66q96 -6 165 -51v-130h-29
q-27 134 -136 144zM224 393v209q-106 -9 -106 -91q0 -34 22.5 -58.5t83.5 -59.5zM267 272v-239q56 7 82 32.5t26 76.5q0 42 -23.5 69.5t-84.5 60.5z" />
    <glyph glyph-name="percent" unicode="%" horiz-adv-x="692" 
d="M285 521q0 42 -17.5 65.5t-44.5 23.5q-41 0 -67 -30t-34 -67.5t-8 -81.5q0 -91 53 -91q50 0 84 53.5t34 127.5zM647 191q0 -93 -47.5 -152t-116.5 -59q-52 0 -81 32.5t-29 90.5q0 87 46.5 147t127.5 60q45 0 72.5 -31t27.5 -88zM613 192q0 44 -18 67.5t-45 23.5
q-31 0 -53 -16t-33.5 -44t-16.5 -59t-5 -68q0 -83 50 -83q51 0 86 52t35 127zM586 666l-405 -687h-48l357 603h-5q-46 -32 -103 -32q-31 0 -68 16l-2 -2q7 -25 7 -49q0 -84 -45.5 -146t-119.5 -62q-52 0 -80.5 33.5t-28.5 91.5q0 89 49 147t122 58q36 0 82.5 -30t87.5 -30
q39 0 68 15t87 74h45z" />
    <glyph glyph-name="ampersand" unicode="&#x26;" horiz-adv-x="736" 
d="M697 109l17 -11q-19 -53 -60 -82.5t-91 -29.5q-44 0 -73.5 18.5t-85.5 73.5q-51 -51 -96 -71.5t-104 -20.5q-84 0 -129 40t-45 116q0 67 42 118t141 107q-29 55 -41 90.5t-12 74.5q0 58 43 94t114 36q58 0 95.5 -31.5t37.5 -89.5q0 -53 -34 -91t-117 -75
q74 -125 140 -211q45 70 62 106.5t17 66.5q0 22 -13.5 31.5t-48.5 9.5v31h220v-31q-36 0 -57 -12t-38 -42q-58 -101 -120 -185q45 -47 73 -66.5t65 -19.5q60 0 98 56zM393 543q0 39 -20.5 64t-57.5 25t-58.5 -22t-21.5 -58q0 -33 10.5 -64t38.5 -86q61 30 85 63t24 78z
M380 103q-77 99 -151 233q-57 -36 -82 -76t-25 -93q0 -120 118 -120q39 0 70.5 11t69.5 45z" />
    <glyph glyph-name="quotesingle" unicode="'" horiz-adv-x="187" 
d="M53 505l-1 201h88v-18l-49 -183h-38z" />
    <glyph glyph-name="parenleft" unicode="(" horiz-adv-x="343" 
d="M30 274q0 159 70.5 276t195.5 180l16 -26q-107 -71 -153.5 -174t-46.5 -256q0 -154 46.5 -258t153.5 -174l-16 -28q-125 64 -195.5 181.5t-70.5 278.5z" />
    <glyph glyph-name="parenright" unicode=")" horiz-adv-x="343" 
d="M313 274q0 -161 -70.5 -278.5t-195.5 -181.5l-16 28q107 70 153.5 174t46.5 258q0 153 -46.5 256t-153.5 174l16 26q125 -63 195.5 -180t70.5 -276z" />
    <glyph glyph-name="asterisk" unicode="*" horiz-adv-x="410" 
d="M220 545v-21l16 13q8 7 30 29t39.5 36t29.5 14q15 0 26 -12t11 -28q0 -21 -21 -31.5t-55.5 -17t-48.5 -14.5l-15 -9v-2l17 -9q14 -7 48.5 -15.5t54.5 -19.5t20 -32q0 -15 -11 -26.5t-26 -11.5q-18 0 -53.5 37.5t-44.5 43.5l-17 11v-21q0 -16 11 -55t11 -54
q0 -16 -10.5 -25.5t-25.5 -9.5t-26 9.5t-11 26.5q0 15 10.5 53.5t10.5 54.5v20l-1 1l-17 -11q-8 -5 -44.5 -43.5t-53.5 -37.5q-15 0 -26 12.5t-11 26.5q0 20 21 31t55 19t48 16l16 9v2l-14 9q-14 8 -48.5 14.5t-56 17t-21.5 30.5q0 15 11 28t26 13q12 0 30 -14t39.5 -36
t30.5 -29l15 -12l1 1v19q0 16 -10.5 54.5t-10.5 53.5q0 17 11.5 26.5t25.5 9.5q15 0 25.5 -9t10.5 -26q0 -15 -11 -54t-11 -55z" />
    <glyph glyph-name="plus" unicode="+" horiz-adv-x="720" 
d="M658 224h-262v-265h-72v265h-262v68h262v265h72v-265h262v-68z" />
    <glyph glyph-name="comma" unicode="," horiz-adv-x="250" 
d="M70 -142l-12 25q18 8 29.5 15t25.5 20.5t21.5 35t7.5 50.5q-17 -6 -32 -6q-27 0 -40.5 15t-13.5 39q0 25 16.5 42t45.5 17q37 0 56.5 -23t19.5 -65q0 -23 -5 -44t-11.5 -35t-19.5 -28t-21 -21t-25 -16.5t-21.5 -11.5z" />
    <glyph glyph-name="hyphen" unicode="-" horiz-adv-x="315" 
d="M270 218h-225v65h225v-65z" />
    <glyph glyph-name="period" unicode="." horiz-adv-x="250" 
d="M184 49q0 -24 -16 -40.5t-44 -16.5t-43 16t-15 42t16 43.5t43 17.5t43 -18t16 -44z" />
    <glyph glyph-name="slash" unicode="/" horiz-adv-x="387" 
d="M352 709l-260 -798h-56l261 798h55z" />
    <glyph glyph-name="zero" unicode="0" horiz-adv-x="495" 
d="M468 317q0 -90 -21.5 -161.5t-73 -119t-126.5 -47.5q-77 0 -128 47t-71.5 118.5t-20.5 165.5q0 146 58 234t164 88q99 0 159 -86.5t60 -238.5zM371 311q0 297 -125 297q-123 0 -123 -293q0 -290 124 -290t124 286z" />
    <glyph glyph-name="one" unicode="1" horiz-adv-x="495" 
d="M426 0h-346v28q71 0 100 15t29 52v423q0 27 -7.5 38t-25.5 11q-52 0 -102 -16v33l194 55h29v-544q0 -37 30 -52t99 -15v-28z" />
    <glyph glyph-name="two" unicode="2" horiz-adv-x="495" 
d="M464 160l-32 -160h-394v34l152 152q82 85 115.5 140.5t33.5 129.5q0 56 -33.5 89.5t-91.5 33.5q-51 0 -85 -22t-61 -76l-24 10q23 73 73.5 113t122.5 40q85 0 138.5 -47.5t53.5 -125.5q0 -62 -37.5 -119t-125.5 -146l-132 -125v-5l70 3h139q38 0 54.5 16.5t34.5 64.5h29z
" />
    <glyph glyph-name="three" unicode="3" horiz-adv-x="495" 
d="M86 498l-23 13q57 133 181 133q75 0 118 -37.5t43 -96.5q0 -48 -26.5 -79.5t-81.5 -66.5v-3q66 -20 106.5 -62t40.5 -105q0 -98 -78.5 -152.5t-194.5 -54.5q-112 0 -112 55q0 17 10.5 30.5t28.5 13.5q14 0 59 -23q51 -26 81 -26q54 0 89 29.5t35 97.5q0 65 -53.5 106.5
t-127.5 41.5h-20v38h19q54 0 96.5 39t42.5 97q0 44 -27.5 68.5t-74.5 24.5q-43 0 -73.5 -20t-57.5 -61z" />
    <glyph glyph-name="four" unicode="4" horiz-adv-x="495" 
d="M481 158h-102v-158h-89v158h-277v63l305 424h61v-418h102v-69zM290 227v309h-4l-218 -305v-4h222z" />
    <glyph glyph-name="five" unicode="5" horiz-adv-x="495" 
d="M417 549h-235l-27 -114q66 -5 115 -17t90 -36t62 -65t21 -98q0 -113 -73 -172.5t-196 -59.5q-115 0 -115 56q0 18 11 30.5t29 12.5q17 0 59.5 -24.5t77.5 -24.5q59 0 96.5 34.5t37.5 107.5q0 43 -15 74.5t-38.5 50t-59.5 30t-70 15.5t-78 5l-12 15l62 261h274z" />
    <glyph glyph-name="six" unicode="6" horiz-adv-x="495" 
d="M415 646l2 -29q-107 -16 -183 -86.5t-94 -178.5l7 -1q64 62 130 62q82 0 131 -56t49 -154q0 -102 -52 -158.5t-146 -56.5q-106 0 -160 75.5t-54 193.5q0 177 102 279.5t268 109.5zM370 195q0 71 -31.5 115.5t-91.5 44.5q-48 0 -80 -29t-32 -90q0 -97 32.5 -155t95.5 -58
q53 0 80 40t27 132z" />
    <glyph glyph-name="seven" unicode="7" horiz-adv-x="495" 
d="M464 599l-234 -607h-79l236 557h-223q-41 0 -55.5 -12.5t-35.5 -62.5l-31 3l40 153h382v-31z" />
    <glyph glyph-name="eight" unicode="8" horiz-adv-x="495" 
d="M448 150q0 -77 -55.5 -119.5t-146.5 -42.5q-90 0 -145 40t-55 114q0 39 17 68.5t41 49t79 56.5v3q-74 52 -99 89.5t-25 90.5q0 67 53 107.5t137 40.5q74 0 124.5 -39.5t50.5 -98.5q0 -53 -28 -85t-101 -72v-3q87 -53 120 -96t33 -103zM350 511q0 49 -27.5 76t-75.5 27
q-51 0 -80.5 -25.5t-29.5 -71.5q0 -43 28.5 -75t98.5 -74q48 29 67 61.5t19 81.5zM213 300q-48 -38 -68.5 -70t-20.5 -80q0 -66 33.5 -98.5t92.5 -32.5q49 0 81.5 26.5t32.5 75.5q0 48 -30.5 84.5t-120.5 94.5z" />
    <glyph glyph-name="nine" unicode="9" horiz-adv-x="495" 
d="M85 -13l-2 29q108 13 182.5 81.5t90.5 185.5l-6 1q-68 -62 -131 -62q-83 0 -131.5 56t-48.5 154q0 101 53 157.5t148 56.5q106 0 158 -76t52 -196q0 -189 -97.5 -287t-267.5 -100zM126 438q0 -72 31.5 -114.5t91.5 -42.5q48 0 79.5 28.5t31.5 88.5q0 99 -30.5 156.5
t-93.5 57.5q-110 0 -110 -174z" />
    <glyph glyph-name="colon" unicode=":" horiz-adv-x="250" 
d="M184 423q0 -24 -16 -40.5t-44 -16.5t-43 16t-15 42t16 43.5t43 17.5t43 -18t16 -44zM184 49q0 -24 -16 -40.5t-44 -16.5t-43 16t-15 42t16 43.5t43 17.5t43 -18t16 -44z" />
    <glyph glyph-name="semicolon" unicode=";" horiz-adv-x="250" 
d="M70 -142l-12 25q18 8 29.5 15t25.5 20.5t21.5 35t7.5 50.5q-17 -6 -32 -6q-27 0 -40.5 15t-13.5 39q0 25 16.5 42t45.5 17q37 0 56.5 -23t19.5 -65q0 -23 -5 -44t-11.5 -35t-19.5 -28t-21 -21t-25 -16.5t-21.5 -11.5zM178 423q0 -24 -16 -40.5t-44 -16.5q-20 0 -33 7.5
t-19 20.5t-6 30q0 26 16 43.5t42 17.5q28 0 44 -18t16 -44z" />
    <glyph glyph-name="less" unicode="&#x3c;" horiz-adv-x="701" 
d="M636 -25l-579 280v10l579 282v-67l-443 -220l443 -220v-65z" />
    <glyph glyph-name="equal" unicode="=" horiz-adv-x="720" 
d="M658 342h-596v68h596v-68zM658 105h-596v67h596v-67z" />
    <glyph glyph-name="greater" unicode="&#x3e;" horiz-adv-x="701" 
d="M636 255l-579 -280v65l442 220l-442 220v67l579 -282v-10z" />
    <glyph glyph-name="question" unicode="?" horiz-adv-x="411" 
d="M224 170h-40v26q0 43 17.5 83.5t38 68t38 72.5t17.5 97q0 114 -104 114q-43 0 -64.5 -15t-21.5 -39q0 -16 10.5 -34t10.5 -38q0 -22 -13 -33t-32 -11q-51 0 -51 70q0 61 47 99.5t123 38.5q79 0 132 -37.5t53 -111.5q0 -41 -16.5 -80t-40.5 -70.5l-47.5 -60.5t-40 -61
t-16.5 -62v-16zM262 48q0 -25 -15.5 -40.5t-41.5 -15.5q-28 0 -43 15t-15 41q0 25 16 42t43 17q25 0 40.5 -17.5t15.5 -41.5z" />
    <glyph glyph-name="at" unicode="@" horiz-adv-x="905" 
d="M627 439l-4 -336q0 -53 38 -53q118 0 118 216q0 145 -85.5 230.5t-225.5 85.5q-153 0 -244.5 -94t-91.5 -262q0 -171 92 -266.5t256 -95.5q133 0 234 48l13 -29q-122 -69 -255 -69q-196 0 -304 108.5t-108 296.5q0 181 113.5 294t294.5 113q176 0 276.5 -99.5
t100.5 -260.5q0 -129 -53 -201.5t-145 -72.5q-47 0 -68 20.5t-27 69.5h-5q-55 -94 -146 -94q-67 0 -110.5 46.5t-43.5 156.5q0 104 52.5 179t149.5 75q59 0 99 -49h7l26 43h46zM545 137l2 186q-6 36 -32 61.5t-64 25.5q-44 0 -72.5 -31.5t-39 -73.5t-10.5 -93
q0 -162 101 -162q43 0 72 25.5t43 61.5z" />
    <glyph glyph-name="A" unicode="A" horiz-adv-x="718" 
d="M714 0h-269v30q69 0 69 37q0 23 -17 62l-39 90h-256l-45 -106q-11 -29 -11 -49t15 -27t52 -7v-30h-210v30q42 0 62 22t56 108l212 502h41l237 -543q23 -51 43.5 -70t59.5 -19v-30zM443 259l-110 280h-3l-113 -280h226z" />
    <glyph glyph-name="B" unicode="B" horiz-adv-x="618" 
d="M409 350v-4q74 -12 124 -53t50 -116q0 -85 -63 -131t-176 -46h-308v30q61 0 79 17.5t18 79.5v409q0 59 -17.5 75t-79.5 16v30h270q129 0 187 -39.5t58 -116.5q0 -63 -37 -98t-105 -53zM225 362h68q89 0 124 30.5t35 100.5q0 125 -167 125q-30 0 -60 -3v-253zM225 320
v-280q36 -3 72 -3q30 0 52 2t48 10t42.5 22.5t27.5 40.5t11 63q0 145 -183 145h-70z" />
    <glyph glyph-name="C" unicode="C" horiz-adv-x="670" 
d="M608 149l24 -21q-93 -139 -268 -139q-150 0 -232 94t-82 245q0 160 90.5 250.5t237.5 90.5q62 0 113 -18t54 -18q5 0 8.5 1.5t7 6l5.5 7t6.5 10.5t6.5 11h30v-229h-34q-31 186 -196 186q-107 0 -166 -76.5t-59 -211.5q0 -144 64 -215t175 -71q126 0 215 97z" />
    <glyph glyph-name="D" unicode="D" horiz-adv-x="730" 
d="M35 657h275q81 0 146 -17t116.5 -53.5t79.5 -101t28 -153.5q0 -167 -95.5 -249.5t-263.5 -82.5h-286v30q65 0 81.5 16t16.5 78v419q0 53 -20 68.5t-78 15.5v30zM225 614v-573q30 -3 59 -3q72 0 123 13t90 44.5t58.5 88t19.5 139.5q0 293 -301 293q-30 0 -49 -2z" />
    <glyph glyph-name="E" unicode="E" horiz-adv-x="626" 
d="M598 186l-28 -186h-534v30q62 0 79.5 15t17.5 73v417q0 57 -18 74.5t-79 17.5v30h525l6 -164h-32q-11 75 -41 97t-122 22h-147v-254h117q69 0 90.5 19.5t21.5 80.5h32v-232h-32q0 60 -20.5 76.5t-91.5 16.5h-117v-275h129q79 -1 117 11.5t56 39t39 91.5h32z" />
    <glyph glyph-name="F" unicode="F" horiz-adv-x="588" 
d="M574 493h-32q-8 41 -14 59.5t-22.5 34.5t-44 20.5t-77.5 4.5h-159v-253h118q65 0 85.5 19t20.5 80h34v-232h-34q0 60 -20 77t-86 17h-118v-210q0 -49 21.5 -64.5t82.5 -15.5v-30h-293v30q61 0 79 15.5t18 70.5v428q0 50 -20.5 66.5t-76.5 16.5v30h532z" />
    <glyph glyph-name="G" unicode="G" horiz-adv-x="720" 
d="M685 310v-32q-42 0 -55 -14.5t-13 -61.5v-145q-60 -35 -115 -51.5t-132 -16.5q-157 0 -238.5 87.5t-81.5 249.5t90.5 252.5t235.5 90.5q48 0 84.5 -9t56.5 -18t28 -9q3 0 6 1t5 1.5t4.5 3l4 4t4 5.5t3.5 6t4.5 7.5t4.5 7.5h29v-229h-34q-32 186 -199 186q-105 0 -164 -77
t-59 -211q0 -150 60.5 -227t169.5 -77q75 0 142 50v108q0 54 -16 70t-72 16v32h247z" />
    <glyph glyph-name="H" unicode="H" horiz-adv-x="777" 
d="M225 525v-168h328v168q0 63 -16 82.5t-81 19.5v30h286v-30q-36 0 -55.5 -4t-29 -18t-11.5 -29.5t-2 -50.5v-394q0 -67 15.5 -84t82.5 -17v-30h-286v30q66 0 81.5 17t15.5 84v187h-328v-187q0 -67 16 -84t82 -17v-30h-287v30q66 0 81.5 16.5t15.5 84.5v394q0 63 -16 82.5
t-81 19.5v30h287v-30q-67 0 -82.5 -19t-15.5 -83z" />
    <glyph glyph-name="I" unicode="I" horiz-adv-x="357" 
d="M133 131v394q0 34 -2 49.5t-12 30t-29.5 18.5t-55.5 4v30h288v-30q-67 0 -82.5 -19t-15.5 -83v-394q0 -66 16 -83.5t82 -17.5v-30h-288v30q66 0 82.5 17.5t16.5 83.5z" />
    <glyph glyph-name="J" unicode="J" horiz-adv-x="396" 
d="M191 123v402q0 64 -15.5 83t-82.5 19v30h282v-30q-60 0 -76 -20t-16 -82v-373q0 -92 -42.5 -128t-121.5 -36q-52 0 -85.5 20t-33.5 59q0 23 11.5 36t32.5 13q20 0 34 -14.5t21 -32t18.5 -32t26.5 -14.5q28 0 37.5 22.5t9.5 77.5z" />
    <glyph glyph-name="K" unicode="K" horiz-adv-x="702" 
d="M133 131v394q0 34 -2 49.5t-12 30t-29.5 18.5t-55.5 4v30h288v-30q-67 0 -82.5 -19t-15.5 -83v-188h5l162 158q39 37 55 58.5t16 42.5q0 31 -38 31h-16v30h245v-30q-40 -2 -63.5 -15t-67.5 -54l-217 -203l287 -282q26 -24 47.5 -33.5t56.5 -9.5v-30h-289v30h20
q39 0 39 20q0 31 -128 156q-3 4 -5.5 6t-5.5 5l-6 6l-88 88h-9v-180q0 -65 16.5 -83t81.5 -18v-30h-288v30q67 0 83 17t16 84z" />
    <glyph glyph-name="L" unicode="L" horiz-adv-x="585" 
d="M568 195l-30 -195h-496v30q59 0 75 17t16 76v407q0 60 -16.5 78.5t-74.5 18.5v30h281v-30q-60 0 -79 -19.5t-19 -78.5v-434q0 -32 15.5 -42.5t60.5 -10.5h46q50 0 80 6.5t50.5 28t31 44.5t27.5 74h32z" />
    <glyph glyph-name="M" unicode="M" horiz-adv-x="895" 
d="M850 0h-266v30q57 0 73 16.5t16 72.5v431h-4l-233 -550h-24l-236 549h-4v-403q0 -76 16.5 -96t74.5 -20v-30h-235v30q62 0 78.5 20t16.5 96v389q0 57 -17 74.5t-76 17.5v30h204l211 -503h4l210 503h190v-30q-53 0 -70 -17.5t-17 -73.5v-417q0 -55 17 -72t71 -17v-30z" />
    <glyph glyph-name="N" unicode="N" horiz-adv-x="742" 
d="M715 657v-30q-44 0 -65 -20q-26 -23 -26 -114v-501h-33l-414 535h-5v-378q0 -75 17 -97t74 -22v-30h-234v30q59 0 76.5 21.5t17.5 97.5v427q-24 31 -42.5 41t-51.5 10v30h170l370 -483h5v324q0 82 -19 104q-21 25 -76 25v30h236z" />
    <glyph glyph-name="O" unicode="O" horiz-adv-x="737" 
d="M687 338q0 -158 -86 -254t-232 -96q-149 0 -234 91t-85 250q0 154 86 247t233 93q148 0 233 -90.5t85 -240.5zM582 335q0 134 -59 213t-157 79q-97 0 -154 -78t-57 -214q0 -144 54.5 -224.5t160.5 -80.5q212 0 212 305z" />
    <glyph glyph-name="P" unicode="P" horiz-adv-x="569" 
d="M48 657h249q247 0 247 -166q0 -74 -39.5 -122t-95.5 -65.5t-127 -17.5q-39 0 -57 8v-171q0 -60 19 -76.5t82 -16.5v-30h-282v30q58 0 73.5 17t15.5 80v430q0 43 -17.5 56.5t-67.5 13.5v30zM225 614v-283q22 -4 54 -4q85 0 125.5 33t40.5 117q0 141 -160 141q-18 0 -60 -4
z" />
    <glyph glyph-name="Q" unicode="Q" horiz-adv-x="737" 
d="M687 339q0 -131 -61 -221.5t-167 -115.5v-2q54 -77 110.5 -108.5t144.5 -31.5v-33h-50q-125 0 -190.5 26.5t-105.5 94.5l-24 41q-137 9 -215.5 98.5t-78.5 241.5q0 154 86 247t233 93t232.5 -90.5t85.5 -239.5zM582 335q0 134 -59 213t-157 79q-97 0 -154 -78t-57 -214
q0 -144 54.5 -224.5t160.5 -80.5q212 0 212 305z" />
    <glyph glyph-name="R" unicode="R" horiz-adv-x="659" 
d="M547 493q0 -135 -169 -175v-4q24 -14 57 -57t126 -176q23 -31 44.5 -41t58.5 -10v-30h-165l-179 268q-14 22 -26.5 27.5t-40.5 5.5h-28v-177q0 -62 17 -78t82 -16v-30h-281v30q57 0 73 16t16 78v429q0 44 -16 59t-73 15v30h246q59 0 104 -8t81 -26t54.5 -51t18.5 -79z
M225 615v-275l38 -1q183 8 183 150q0 129 -155 129q-35 0 -66 -3z" />
    <glyph glyph-name="S" unicode="S" horiz-adv-x="504" 
d="M440 467h-30q-22 87 -58 125t-109 37q-51 0 -79 -24t-28 -70q0 -25 9.5 -46t32 -39.5t39.5 -29.5t52 -31q3 -2 5 -3t4.5 -2.5t4.5 -2.5q5 -3 26.5 -15l27.5 -15.5l25 -15t26 -17.5l22 -18t21 -21t16 -22.5t13.5 -26.5t7 -29t3.5 -34q0 -85 -56.5 -132t-146.5 -47
q-62 0 -113.5 15t-52.5 15q-11 0 -18.5 -9t-8.5 -24h-31l-9 216h31q25 -100 66.5 -135t121.5 -34q122 0 122 106q0 18 -4 34t-15 30.5t-19.5 24t-28.5 23t-29.5 19l-35.5 20t-34 19.5q-39 22 -60.5 36.5t-48.5 39.5t-39.5 55.5t-12.5 67.5q0 76 54 118.5t136 43.5
q54 0 93.5 -15.5t43.5 -15.5q24 0 31 29h26z" />
    <glyph glyph-name="T" unicode="T" horiz-adv-x="603" 
d="M587 477h-31q-17 86 -41 110.5t-104 24.5h-63v-481q0 -68 17 -84.5t82 -16.5v-30h-290v30q64 0 81 17t17 84v481h-64q-80 0 -104.5 -25t-40.5 -110h-31l11 180h553z" />
    <glyph glyph-name="U" unicode="U" horiz-adv-x="752" 
d="M734 657v-30q-63 0 -78.5 -22.5t-15.5 -102.5v-241q0 -139 -63.5 -206t-203.5 -67q-134 0 -194.5 61.5t-60.5 200.5v289q0 53 -19.5 70.5t-78.5 17.5v30h288v-30q-62 0 -80 -17.5t-18 -75.5v-283q0 -102 42.5 -151t145.5 -49q98 0 141.5 46t43.5 150v252q0 81 -16 104.5
t-78 23.5v30h245z" />
    <glyph glyph-name="V" unicode="V" horiz-adv-x="680" 
d="M407 226l126 318q11 28 11 49q0 20 -15 27t-52 7v30h210v-30q-41 0 -61 -22t-56 -108l-206 -502h-40l-229 541q-22 52 -44 71.5t-61 19.5v30h268v-30q-68 0 -68 -38q0 -20 17 -61l121 -297l39 -105h5z" />
    <glyph glyph-name="W" unicode="W" horiz-adv-x="944" 
d="M943 657v-30q-35 -1 -53 -16t-32 -53l-193 -564h-27l-150 397h-4l-151 -397h-25l-208 524q-23 62 -46.5 84.5t-63.5 24.5v30h258v-30q-66 0 -66 -33q0 -19 14 -55l116 -292l31 -84h5l113 292l-28 77q-23 63 -42 79t-63 16v30h261v-30q-76 0 -76 -34q0 -14 17 -58
l104 -270l33 -99h5l114 332q18 58 18 87q0 42 -67 42v30h206z" />
    <glyph glyph-name="X" unicode="X" horiz-adv-x="664" 
d="M660 0h-280v29h10q30 0 41.5 6t11.5 22q0 28 -36 85l-63 99l-29 50h-2l-121 -171q-33 -43 -33 -63q0 -14 13.5 -21t50.5 -7v-29h-221v29q39 1 60 16t58 63l167 220l-143 214q-28 41 -40.5 55t-32 22t-54.5 8v30h278v-30h-11q-52 0 -52 -29q0 -11 9 -27.5t25 -42t25 -42.5
l56 -95h2l105 151q27 44 27 62q0 12 -12.5 17.5t-46.5 5.5v30h230v-30q-48 -1 -72.5 -17.5t-66.5 -71.5l-139 -181l183 -268q25 -36 45 -47.5t58 -12.5v-29z" />
    <glyph glyph-name="Y" unicode="Y" horiz-adv-x="647" 
d="M652 657v-30q-46 -4 -71 -22t-61 -77l-148 -247v-150q0 -65 20 -83t84 -18v-30h-296v30q66 0 83 17t17 84v145l-127 205q-58 95 -88.5 120.5t-69.5 25.5v30h269v-30q-67 0 -67 -23q0 -20 17 -46l90 -144l44 -78h6l132 225q12 19 12 39q0 14 -13.5 20.5t-50.5 6.5v30h218z
" />
    <glyph glyph-name="Z" unicode="Z" horiz-adv-x="594" 
d="M567 186l-29 -186h-510v29l408 575v8h-181q-81 0 -115 -25t-48 -105h-32l11 175h489v-28l-405 -579v-6h209q57 0 88.5 13.5t48.5 41.5t35 87h31z" />
    <glyph glyph-name="bracketleft" unicode="[" horiz-adv-x="347" 
d="M300 -186h-209v918h209v-30h-130v-858h130v-30z" />
    <glyph glyph-name="backslash" unicode="\" horiz-adv-x="385" 
d="M295 -89l-260 798h55l260 -798h-55z" />
    <glyph glyph-name="bracketright" unicode="]" horiz-adv-x="347" 
d="M256 -186h-209v30h130v858h-130v30h209v-918z" />
    <glyph glyph-name="asciicircum" unicode="^" horiz-adv-x="480" 
d="M449 309h-60l-148 303h-3l-147 -303h-59l180 364h56z" />
    <glyph glyph-name="underscore" unicode="_" horiz-adv-x="512" 
d="M512 -128h-512v51h512v-51z" />
    <glyph glyph-name="grave" unicode="`" horiz-adv-x="222" 
d="M122 674l70 -153h-39l-123 135v18h92z" />
    <glyph glyph-name="a" unicode="a" horiz-adv-x="480" 
d="M308 62h-4q-42 -36 -72.5 -52.5t-74.5 -16.5q-56 0 -87.5 31t-31.5 81q0 32 14.5 58t33.5 42.5t52 31.5t55.5 22t59 17t48.5 14v44q0 64 -22 92t-68 28q-41 0 -54 -17t-13 -64q0 -46 -44 -46q-17 0 -29.5 12.5t-12.5 35.5q0 44 49 77t127 33q80 0 115 -37t35 -117v-227
q0 -29 6.5 -39t23.5 -10q24 0 47 25l15 -16q-26 -38 -48.5 -53.5t-59.5 -15.5q-31 0 -43 15.5t-17 51.5zM301 92v165q-41 -10 -67 -19t-53.5 -24t-41 -36t-13.5 -49q0 -37 19.5 -59t52.5 -22q50 0 103 44z" />
    <glyph glyph-name="b" unicode="b" horiz-adv-x="522" 
d="M163 706v-306h3q71 85 154 85q74 0 120.5 -62t46.5 -160q0 -131 -66 -202t-174 -71q-93 0 -167 40v562q0 34 -8 43.5t-36 9.5l-28 -2v28l129 35h26zM163 356v-278q39 -47 102 -47q67 0 99 55t32 145q0 186 -120 186q-34 0 -65 -19.5t-48 -41.5z" />
    <glyph glyph-name="c" unicode="c" horiz-adv-x="446" 
d="M408 148l19 -14q-33 -70 -76.5 -107t-117.5 -37q-92 0 -146 65t-54 171q0 119 59.5 189t166.5 70q69 0 110.5 -30.5t41.5 -75.5t-42 -45q-25 0 -39 18t-19.5 39t-22.5 39t-46 18q-62 0 -96 -45t-34 -130q0 -95 38.5 -151.5t113.5 -56.5q47 0 78 18.5t66 64.5z" />
    <glyph glyph-name="d" unicode="d" horiz-adv-x="539" 
d="M514 18l-128 -23h-23v69h-4q-80 -72 -155 -72q-82 0 -126.5 63.5t-44.5 163.5q0 120 66 193t164 73q53 0 97 -24v131q0 34 -7.5 43.5t-36.5 9.5l-26 -2v28l126 35h27v-599q0 -38 10.5 -50t39.5 -12h21v-27zM360 101v264q-7 34 -31.5 57t-67.5 23q-65 0 -103 -47.5
t-38 -139.5q0 -101 33 -147.5t98 -46.5q55 0 109 37z" />
    <glyph glyph-name="e" unicode="e" horiz-adv-x="464" 
d="M415 143l19 -14q-31 -66 -73.5 -102.5t-113.5 -36.5q-93 0 -153 65.5t-60 182.5q0 120 59 183.5t152 63.5q83 0 132.5 -57.5t53.5 -161.5h-316q0 -98 45.5 -149.5t110.5 -51.5q55 0 84.5 19.5t59.5 58.5zM114 303h223q-2 60 -29.5 101t-77.5 41q-104 0 -116 -142z" />
    <glyph glyph-name="f" unicode="f" horiz-adv-x="307" 
d="M26 473h76q0 110 32 167q22 37 52.5 55t80.5 18t81 -18.5t31 -51.5q0 -21 -11.5 -32t-29.5 -11q-25 0 -52.5 38t-52.5 38q-27 0 -37.5 -25t-10.5 -89v-89h122v-42h-122v-312q0 -57 19.5 -73.5t82.5 -16.5v-29h-269v29q55 0 69.5 15.5t14.5 74.5v312h-76v42z" />
    <glyph glyph-name="g" unicode="g" horiz-adv-x="484" 
d="M128 184v2q-77 45 -77 136q0 74 50.5 118.5t130.5 44.5q29 0 57 -6.5t41 -12.5l13 -6l129 7v-54l-94 3v-5q36 -51 36 -103q0 -69 -49 -110.5t-128 -41.5q-43 0 -86 15q-8 -12 -17 -33.5t-9 -33.5q0 -23 25 -31.5t93 -8.5q46 0 72.5 -1.5t59 -7.5t49.5 -18.5t29 -35
t12 -56.5q0 -63 -43.5 -105.5t-102.5 -58.5t-128 -16q-91 0 -130.5 31.5t-39.5 78.5q0 41 81 119v4q-56 28 -56 72q0 51 82 114zM225 449q-40 0 -63 -31t-23 -92q0 -65 25.5 -100t73.5 -35q87 0 87 123q0 62 -26.5 98.5t-73.5 36.5zM127 -10q-28 -49 -28 -81q0 -87 150 -87
q82 0 123.5 29t41.5 66q0 24 -15 39.5t-43.5 21.5t-50.5 8t-56 2h-9q-34 0 -60 0.5t-37 1t-16 0.5z" />
    <glyph glyph-name="h" unicode="h" horiz-adv-x="577" 
d="M183 359v-262q0 -42 12.5 -55t61.5 -13v-29h-227v29q41 0 55.5 12t14.5 52v512q0 24 -12.5 32t-36.5 8l-29 -2v28l134 35h27v-303h3q88 82 162 82q134 0 134 -185v-199q0 -42 14 -57t60 -15v-29h-230v29q48 0 60.5 14t12.5 54v173q0 73 -18.5 112t-73.5 39
q-56 0 -124 -62z" />
    <glyph glyph-name="i" unicode="i" horiz-adv-x="285" 
d="M145 693q25 0 41 -16.5t16 -39.5q0 -24 -15.5 -40.5t-41.5 -16.5q-25 0 -41 16.5t-16 40.5q0 23 16 39.5t41 16.5zM257 28v-28h-225v28q48 0 59 13.5t11 59.5v279q0 30 -10 38.5t-34 8.5l-25 -2v29l126 28h26v-381q0 -46 12 -59.5t60 -13.5z" />
    <glyph glyph-name="j" unicode="j" horiz-adv-x="263" 
d="M183 482v-484q0 -119 -42 -176t-130 -57q-49 0 -77.5 19.5t-28.5 52.5q0 19 12 30.5t32 11.5q24 0 49.5 -35t48.5 -35q34 0 43.5 34.5t9.5 124.5v405q0 33 -8.5 43.5t-35.5 10.5l-30 -3v30l130 28h27zM139 693q26 0 42.5 -16.5t16.5 -39.5q0 -24 -16.5 -40.5t-42.5 -16.5
q-25 0 -41.5 16.5t-16.5 40.5q0 23 16 39.5t42 16.5z" />
    <glyph glyph-name="k" unicode="k" horiz-adv-x="542" 
d="M539 0h-221v29q39 0 39 12q0 13 -11 24l-157 178h-6v-152q0 -39 13.5 -50.5t60.5 -11.5v-29h-227v29q45 0 57.5 12t12.5 54v500q0 32 -7.5 41.5t-32.5 9.5l-34 -2v27l130 35h27v-441h6l129 128q18 18 18 32q0 18 -49 18v30h216v-30q-46 0 -75 -18.5t-121 -98.5l-50 -41
l176 -198q34 -39 53 -48.5t53 -9.5v-29z" />
    <glyph glyph-name="l" unicode="l" horiz-adv-x="283" 
d="M260 29v-29h-230v29q47 0 58.5 13.5t11.5 58.5v502q0 28 -10 35.5t-32 7.5l-32 -2v27l132 35h25v-605q0 -46 12.5 -59t64.5 -13z" />
    <glyph glyph-name="m" unicode="m" horiz-adv-x="852" 
d="M185 357v-260q0 -42 14.5 -55t60.5 -13v-29h-228v29q46 0 58 13t12 59v280q0 26 -10 35.5t-32 9.5l-27 -2v29l125 29h24v-81h4q33 29 53.5 44t51.5 27.5t63 12.5q76 0 111 -83h4q85 83 159 83q129 0 129 -165v-204q0 -52 12 -69.5t60 -17.5v-29h-226v29q47 0 59 18t12 69
v192q0 113 -86 113q-42 0 -115 -62v-243q0 -55 12.5 -71t64.5 -16v-29h-237v29q51 0 64 16t13 71v198q0 60 -21 83.5t-59 23.5q-56 0 -125 -64z" />
    <glyph glyph-name="n" unicode="n" horiz-adv-x="576" 
d="M481 307v-206q0 -44 13 -58.5t61 -14.5v-28h-231v28q50 0 62 14t12 59v181q0 81 -25.5 110t-66.5 29q-25 0 -50.5 -12t-36.5 -21t-34 -30v-257q0 -45 12.5 -59t63.5 -14v-28h-229v28q48 0 59 14t11 59v281q0 26 -10 35t-32 9l-27 -2v29l127 29h23l-1 -81h4
q49 43 83.5 63.5t77.5 20.5q134 0 134 -178z" />
    <glyph glyph-name="o" unicode="o" horiz-adv-x="514" 
d="M258 485q103 0 162.5 -64t59.5 -175q0 -123 -61 -189.5t-161 -66.5q-106 0 -165 65.5t-59 186.5q0 109 61.5 176t162.5 67zM254 447q-59 0 -93 -49t-34 -143q0 -227 135 -225q65 0 95.5 47t30.5 164q0 95 -34.5 150.5t-99.5 55.5z" />
    <glyph glyph-name="p" unicode="p" horiz-adv-x="537" 
d="M176 482v-84h3q75 87 155 87q74 0 121 -63t47 -161q0 -124 -63 -197.5t-156 -73.5q-60 0 -101 28h-4v-131q0 -48 19 -63t78 -15v-29h-253v28q46 0 59.5 14.5t13.5 58.5v495q0 30 -7 40.5t-31 10.5l-32 -2v29l126 28h25zM178 356v-261q1 -1 7 -7.5t8.5 -9.5t9 -9.5t11 -10
l11.5 -9t14 -8.5t15 -6t16.5 -4.5t17.5 -1.5q55 0 89 52t34 152q0 184 -118 184q-36 0 -66.5 -19t-48.5 -42z" />
    <glyph glyph-name="q" unicode="q" horiz-adv-x="521" 
d="M507 -220h-242v28q59 0 76 15.5t17 63.5v176h-3q-39 -35 -73.5 -53t-78.5 -18q-78 0 -124 62t-46 166q0 118 64.5 191.5t161.5 73.5q63 0 118 -37l27 33h37v-605q0 -40 12.5 -54t53.5 -14v-28zM358 103v263q-21 79 -100 79q-65 0 -102 -47.5t-37 -139.5q0 -193 132 -193
q61 0 107 38z" />
    <glyph glyph-name="r" unicode="r" horiz-adv-x="380" 
d="M183 482v-103h3q42 61 68.5 85t60.5 24q58 0 58 -56q0 -27 -13 -40.5t-31 -13.5q-19 0 -40.5 17t-24.5 17q-30 0 -79 -82v-228q0 -46 18 -59.5t76 -13.5v-29h-250v29q48 0 60.5 12.5t12.5 55.5v275q0 17 -0.5 24.5t-4 15.5t-11 11t-20.5 3l-31 -2v28l124 30h24z" />
    <glyph glyph-name="s" unicode="s" horiz-adv-x="395" 
d="M39 164h26q16 -76 46.5 -107t86.5 -31q86 0 86 66q0 35 -21 56.5t-91 55.5q-72 37 -102 69.5t-30 85.5q0 60 43 93t110 33q51 0 105 -26h1l17 21h20l3 -153h-27q-16 69 -44 96.5t-76 27.5q-36 0 -58.5 -17t-22.5 -49q0 -28 25.5 -50.5t91.5 -56.5q75 -40 107.5 -73.5
t32.5 -85.5q0 -66 -47 -98t-121 -32q-53 0 -114 26h-2l-21 -23h-21z" />
    <glyph glyph-name="t" unicode="t" horiz-adv-x="315" 
d="M293 90l19 -16q-24 -34 -36 -47.5t-34.5 -25t-53.5 -11.5q-51 0 -73.5 29.5t-22.5 96.5v315h-55v23q35 22 60.5 57t52.5 99h26l-1 -137h113v-42h-113v-287q0 -55 9.5 -75t38.5 -20q22 0 35.5 8.5t34.5 32.5z" />
    <glyph glyph-name="u" unicode="u" horiz-adv-x="570" 
d="M540 45v-27l-127 -23h-22v77h-5q-43 -42 -80.5 -62t-83.5 -20q-65 0 -98 42.5t-33 140.5v203q0 39 -12.5 48.5t-55.5 10.5v28l129 15h22v-292q0 -132 90 -132q35 0 61 14.5t62 45.5v263q0 38 -15.5 48t-65.5 10v28l140 15h24v-367q0 -43 11.5 -54.5t48.5 -11.5h10z" />
    <glyph glyph-name="v" unicode="v" horiz-adv-x="481" 
d="M498 473v-29q-29 0 -44.5 -13.5t-30.5 -52.5l-158 -384h-48l-149 377q-20 47 -34.5 60t-46.5 13v29h211v-29q-52 0 -52 -25q0 -16 10 -39l85 -223l19 -60h6l21 61l86 226q0 1 2 6.5t3.5 12.5t1.5 14q0 27 -57 27v29h175z" />
    <glyph glyph-name="w" unicode="w" horiz-adv-x="749" 
d="M762 473v-29q-29 0 -44 -13.5t-30 -52.5l-149 -384h-48l-106 291h-4l-117 -291h-46l-150 377q-19 46 -35.5 59.5t-49.5 13.5v29h215v-29q-53 0 -53 -25q0 -11 11 -39l87 -221l18 -58h7l21 58l72 182l-11 30q-17 47 -33 60t-50 13v29h209v-29q-50 0 -50 -25q0 -14 9 -41
l81 -219l18 -58h6l20 58l79 224q6 30 6 36q0 25 -56 25v29h173z" />
    <glyph glyph-name="x" unicode="x" horiz-adv-x="479" 
d="M482 0h-209v29q27 0 37 4.5t10 17.5q0 10 -7 21l-63 97l-20 35h-4l-82 -118q-24 -38 -24 -42q0 -15 45 -15v-29h-167v29q25 0 42.5 10.5t42.5 39.5l120 156l-104 149q-27 38 -42.5 49t-45.5 11v29h215v-28q-48 0 -48 -23q0 -5 2 -10.5t7 -13.5l10 -16l15 -23.5t18 -29.5
l24 -44h4l47 68q36 49 36 68q0 24 -41 24v28h165v-29q-43 0 -80 -47l-106 -136l123 -174q23 -33 38.5 -45.5t41.5 -12.5v-29z" />
    <glyph glyph-name="y" unicode="y" horiz-adv-x="483" 
d="M493 473v-29q-29 0 -43.5 -12.5t-25.5 -43.5l-156 -410q-42 -110 -83.5 -154.5t-102.5 -44.5q-74 0 -74 52q0 43 47 43q19 0 44.5 -11t36.5 -11q22 0 55.5 63.5t33.5 89.5q0 14 -30 82l-147 321q-16 36 -60 36v29h214v-30q-32 0 -44.5 -6.5t-12.5 -20.5q0 -10 14 -43
l98 -220l14 -52h7l96 293q5 20 5 25q0 25 -56 25v29h170z" />
    <glyph glyph-name="z" unicode="z" horiz-adv-x="458" 
d="M425 160l-10 -160h-384v29l281 399v3h-135q-52 0 -72 -24.5t-27 -80.5h-31l5 147h369v-29l-281 -400v-3h125q63 0 87.5 24t39.5 95h33z" />
    <glyph glyph-name="braceleft" unicode="{" horiz-adv-x="312" 
d="M26 246v45q39 2 60.5 15.5t21.5 50.5q0 28 -13 108t-13 113q0 77 51.5 115.5t130.5 38.5v-30q-47 0 -78 -28t-31 -86q0 -24 11.5 -83.5t11.5 -99.5q0 -51 -25 -84t-64 -47v-6q86 -26 86 -124q0 -41 -10 -97.5t-10 -91.5q0 -48 32.5 -79.5t76.5 -31.5v-30q-79 0 -130.5 38
t-51.5 114q0 34 13 113.5t13 105.5q0 35 -21.5 47.5t-60.5 13.5z" />
    <glyph glyph-name="bar" unicode="|" horiz-adv-x="267" 
d="M162 -38h-57v717h57v-717z" />
    <glyph glyph-name="braceright" unicode="}" horiz-adv-x="312" 
d="M286 291v-45q-39 -1 -60.5 -13.5t-21.5 -47.5q0 -26 13 -105.5t13 -113.5q0 -76 -51.5 -114t-130.5 -38v30q44 0 76.5 31.5t32.5 79.5q0 35 -10 91.5t-10 97.5q0 98 86 124v6q-39 14 -64 47t-25 84q0 40 11.5 99.5t11.5 83.5q0 58 -31 86t-78 28v30q79 0 130.5 -38.5
t51.5 -115.5q0 -33 -13 -113t-13 -108q0 -37 21.5 -50.5t60.5 -15.5z" />
    <glyph glyph-name="asciitilde" unicode="~" horiz-adv-x="557" 
d="M384 198q-38 0 -107 28t-104 28q-32 0 -52 -17.5t-42 -55.5l-49 26q30 58 60 85t83 27q38 0 107.5 -28t103.5 -28q32 0 52 17.5t42 55.5l49 -26q-30 -58 -60 -85t-83 -27z" />
    <glyph glyph-name="uni00A0" unicode="&#xa0;" horiz-adv-x="256" 
 />
    <glyph glyph-name="exclamdown" unicode="&#xa1;" horiz-adv-x="282" 
d="M160 303l31 -367q0 -13 1.5 -35t1.5 -31q0 -66 -52 -66q-53 0 -53 68q0 28 3 64l33 367h35zM82 424q0 24 16.5 41t43.5 17q28 0 43.5 -16.5t15.5 -42.5t-16 -43.5t-44 -17.5q-27 0 -43 18t-16 44z" />
    <glyph glyph-name="cent" unicode="&#xa2;" horiz-adv-x="495" 
d="M225 -25l3 98q-83 9 -132.5 72.5t-49.5 160.5q0 107 54 174.5t146 79.5l4 97h43l-4 -94q66 -1 104.5 -30.5t38.5 -73.5q0 -45 -42 -45q-22 0 -36 14.5t-19 33t-17 37.5t-30 26l-14 -382h15q46 0 74.5 19t65.5 66l19 -14q-30 -65 -70.5 -101t-106.5 -41l-3 -97h-43z
M125 353q0 -73 28 -126.5t78 -73.5l14 375q-55 -6 -87.5 -51.5t-32.5 -123.5z" />
    <glyph glyph-name="sterling" unicode="&#xa3;" horiz-adv-x="495" 
d="M372 304h-135q4 -46 4 -62q0 -63 -23 -135q11 -5 29 -14t24.5 -12.5t19 -7.5t23.5 -5.5t25 -1.5q74 0 121 66l20 -12q-50 -126 -158 -126q-32 0 -56.5 11t-76.5 45q-42 -58 -97 -58q-34 0 -56 16t-22 50q0 40 27.5 58.5t64.5 18.5q29 0 57 -10q2 75 -17 179h-95v43h90
q-5 40 -5 80q0 94 49.5 155.5t137.5 61.5q60 0 99.5 -27.5t39.5 -63.5q0 -20 -11.5 -30.5t-28.5 -10.5q-19 0 -34.5 14t-24.5 30.5t-27 30.5t-41 14q-39 0 -57.5 -23t-18.5 -82q0 -49 14 -149h139v-43zM159 75v2q-27 21 -55 21q-51 0 -51 -37q0 -34 44 -34q37 0 62 48z" />
    <glyph glyph-name="currency" unicode="&#xa4;" horiz-adv-x="617" 
d="M577 41l-39 -41l-99 99q-61 -44 -129 -44q-69 0 -131 44l-98 -99l-41 41l100 97q-44 62 -44 130q0 71 44 130l-100 99l41 40l98 -98q64 42 131 42q70 0 129 -42l99 98l39 -40l-97 -99q42 -60 42 -129q0 -68 -42 -131zM466 270q0 67 -45.5 113.5t-112.5 46.5
q-64 0 -110.5 -47.5t-46.5 -113.5q0 -68 46.5 -115.5t112.5 -47.5t111 47.5t45 116.5z" />
    <glyph glyph-name="yen" unicode="&#xa5;" horiz-adv-x="495" 
d="M75 261v44h123l-104 186q-42 77 -55.5 93.5t-37.5 16.5v29l219 -1v-28q-32 0 -43.5 -5.5t-11.5 -17.5q0 -16 22 -60l59 -110l30 -73h4l85 199q11 24 11 42q0 14 -10.5 19.5t-40.5 5.5v29h169v-29q-35 -1 -51.5 -18.5t-43.5 -76.5l-92 -201h122v-44h-130v-75h130v-44h-130
q0 -75 15 -94.5t72 -19.5l1 -28h-264v28q57 0 70.5 17.5t13.5 87.5v9h-132v44h132v75h-132z" />
    <glyph glyph-name="brokenbar" unicode="&#xa6;" horiz-adv-x="267" 
d="M162 679v-292h-57v292h57zM162 254v-292h-57v292h57z" />
    <glyph glyph-name="section" unicode="&#xa7;" horiz-adv-x="491" 
d="M416 195q0 -95 -108 -124v-3q40 -38 60 -68.5t20 -68.5q0 -48 -27 -79.5t-64 -43t-84 -11.5q-60 0 -99 34t-39 84q0 57 46 57q14 0 23.5 -9t9.5 -27q0 -15 -8.5 -30t-8.5 -29q0 -20 21.5 -36t55.5 -16q110 0 110 75q0 32 -25 63t-60.5 59l-71 58.5t-60.5 72.5t-25 90
q0 100 103 132v2q-82 80 -82 145q0 60 47.5 95t114.5 35q60 0 98.5 -32t38.5 -82q0 -57 -42 -57q-37 0 -37 36q0 15 8.5 30t8.5 29q0 20 -20 33.5t-54 13.5q-99 0 -99 -74q0 -28 18.5 -55t46 -49l60 -49.5t60 -54t46 -65t18.5 -81.5zM363 166q0 19 -8 38t-28 41t-33.5 35.5
t-45.5 41l-44 38.5q-38 -12 -53.5 -29.5t-15.5 -48.5q0 -17 7 -34.5t15.5 -31t28 -34t30.5 -30.5l37.5 -33.5l36.5 -32.5q73 21 73 80z" />
    <glyph glyph-name="dieresis" unicode="&#xa8;" horiz-adv-x="391" 
d="M361 607q0 -25 -15 -40.5t-41 -15.5t-41 15.5t-15 40.5q0 24 15 39t41 15t41 -15t15 -39zM141 607q0 -25 -14.5 -40.5t-40.5 -15.5q-27 0 -41.5 15.5t-14.5 40.5q0 24 15 39t41 15q25 0 40 -15t15 -39z" />
    <glyph glyph-name="copyright" unicode="&#xa9;" horiz-adv-x="781" 
d="M55 330q0 152 94 249t240 97q148 0 242.5 -97t94.5 -249q0 -151 -94.5 -247.5t-242.5 -96.5q-146 0 -240 96.5t-94 247.5zM93 330q0 -137 82 -224t214 -87q134 0 216.5 87t82.5 224q0 139 -82.5 226t-216.5 87q-132 0 -214 -87t-82 -226zM533 241l19 -17
q-58 -83 -155 -83q-92 0 -139.5 48t-47.5 140t46.5 143t135.5 51q39 0 68 -9.5t31 -9.5q6 0 21 18h24v-134h-28q-11 54 -39.5 78t-80.5 24q-60 0 -81.5 -37.5t-21.5 -114.5q0 -69 31.5 -106.5t93.5 -37.5q44 0 71.5 10.5t51.5 36.5z" />
    <glyph glyph-name="ordfeminine" unicode="&#xaa;" horiz-adv-x="410" 
d="M262 299h-6q-34 -27 -61 -40t-61 -13q-46 0 -72.5 25t-26.5 67q0 23 7.5 42.5t25 33.5t32 24t42 18.5l39.5 12t41 9.5t32 7v41q0 87 -76 87q-33 0 -42.5 -12t-9.5 -49t-38 -37q-14 0 -25.5 10t-11.5 30q0 36 41 62t104 26q68 0 99.5 -30.5t31.5 -94.5v-181
q0 -24 5.5 -31.5t19.5 -7.5q17 0 37 20l14 -17q-21 -30 -41 -42t-52 -12q-26 0 -35.5 12t-12.5 40zM254 326v131q-29 -7 -42.5 -11t-37 -12.5t-34.5 -18t-20 -25t-9 -35.5q0 -28 16 -44.5t43 -16.5q44 0 84 32z" />
    <glyph glyph-name="guillemotleft" unicode="&#xab;" horiz-adv-x="517" 
d="M33 226v23l198 193l23 -20l-135 -179v-6l138 -182l-24 -21q-122 122 -200 192zM244 226v23l197 193l23 -20l-135 -179v-6l138 -182l-24 -21q-121 121 -199 192z" />
    <glyph glyph-name="logicalnot" unicode="&#xac;" horiz-adv-x="614" 
d="M565 118h-68v217h-448v67h516v-284z" />
    <glyph glyph-name="uni00AD" unicode="&#xad;" horiz-adv-x="315" 
d="M270 218h-225v65h225v-65z" />
    <glyph glyph-name="registered" unicode="&#xae;" horiz-adv-x="413" 
d="M36 546q0 76 48.5 126t121.5 50q75 0 123 -49.5t48 -126.5q0 -76 -48 -125t-123 -49q-74 0 -122 49t-48 125zM59 546q0 -68 40.5 -111t106.5 -43t107 43t41 111q0 69 -41 112.5t-107 43.5t-106.5 -43.5t-40.5 -112.5zM285 590q0 -39 -49 -49v-2l8 -8t16 -17.5l25 -28.5
q11 -14 24 -14v-16h-53l-52 73q-6 7 -11 7h-12v-39q0 -17 5 -21t26 -4v-16h-98v16q17 0 22.5 4.5t5.5 20.5v107q0 13 -4.5 17t-21.5 4v14h86q83 0 83 -48zM181 619v-67h10q27 0 38.5 8.5t11.5 29.5q0 17 -10 23t-32 6h-18z" />
    <glyph glyph-name="macron" unicode="&#xaf;" horiz-adv-x="350" 
d="M320 555h-290v55h290v-55z" />
    <glyph glyph-name="degree" unicode="&#xb0;" horiz-adv-x="405" 
d="M355 546q0 -71 -42 -111.5t-110 -40.5t-110.5 40.5t-42.5 112.5q0 71 44 110.5t111 39.5q66 0 108 -40t42 -111zM299 547q0 48 -26.5 75.5t-71.5 27.5t-70 -28t-25 -76t26 -76.5t71 -28.5t70.5 28.5t25.5 77.5z" />
    <glyph glyph-name="plusminus" unicode="&#xb1;" horiz-adv-x="701" 
d="M652 248h-268v-214h-68v214h-267v67h267v203h68v-203h268v-67zM652 -99h-603v67h603v-67z" />
    <glyph glyph-name="uni00B2" unicode="&#xb2;" horiz-adv-x="400" 
d="M349 562l-22 -112h-276v24l106 106q58 60 81.5 99t23.5 90q0 40 -24 63t-64 23q-18 0 -32 -3t-26.5 -11t-23 -21.5t-20.5 -32.5l-17 7q11 34 30 57.5t46.5 36.5t60.5 13q60 0 97.5 -33.5t37.5 -87.5q0 -44 -26.5 -84t-87.5 -102l-93 -87v-4l49 2h97q27 0 38.5 11.5
t24.5 45.5h20z" />
    <glyph glyph-name="uni00B3" unicode="&#xb3;" horiz-adv-x="400" 
d="M84 799l-16 9q40 93 127 93q52 0 82.5 -26.5t30.5 -67.5q0 -33 -19 -55.5t-57 -46.5v-2q103 -33 103 -117q0 -69 -55 -107t-136 -38q-79 0 -79 38q0 12 7.5 21.5t20.5 9.5q11 0 41 -16q36 -18 57 -18q86 0 86 89q0 45 -37 74t-89 29h-14v27h13q38 0 67.5 27t29.5 68
q0 30 -19 47.5t-52 17.5q-56 0 -92 -56z" />
    <glyph glyph-name="acute" unicode="&#xb4;" horiz-adv-x="222" 
d="M30 521l70 153h93v-18l-124 -135h-39z" />
    <glyph glyph-name="uni00B5" unicode="&#xb5;" horiz-adv-x="552" 
d="M456 463l-43 -246l3 -45q7 -108 62 -108q33 0 62 39l17 -11q-35 -102 -115 -102q-34 0 -48.5 20.5t-21.5 61.5q-6 42 -11 92h-6q-39 -177 -137 -177q-19 0 -35 7.5t-28 24t-17 25t-14 25.5h-5q1 -117 16 -260l-75 -26l-16 3q1 193 31 363l-1 320l90 3l4 -8l-36 -247
q-1 -10 -1 -22q0 -48 26 -86.5t65 -38.5q31 0 59 29t44.5 67.5t26.5 70.5t10 44l3 188l86 3z" />
    <glyph glyph-name="paragraph" unicode="&#xb6;" horiz-adv-x="605" 
d="M455 -148h-68v769h-60v-769h-68l1 406q-103 9 -154 55t-51 148q0 100 54 148t166 48h270v-26q-58 -5 -74.5 -25t-16.5 -78zM260 287z" />
    <glyph glyph-name="periodcentered" unicode="&#xb7;" horiz-adv-x="282" 
d="M200 255q0 -24 -16 -40.5t-44 -16.5t-43 16t-15 42t16 43.5t43 17.5t43 -18t16 -44z" />
    <glyph glyph-name="cedilla" unicode="&#xb8;" horiz-adv-x="247" 
d="M121 4l-14 -61q12 2 28 2q39 0 60.5 -19t21.5 -54q0 -40 -28.5 -63.5t-75.5 -23.5q-38 0 -83 35l10 23q31 -19 64 -19q55 0 55 44q0 42 -43 42l-31 -3l-14 11l21 86h29z" />
    <glyph glyph-name="uni00B9" unicode="&#xb9;" horiz-adv-x="400" 
d="M323 450h-242v20q25 0 42 2t28 8t15.5 14.5t4.5 21.5v297q0 18 -5 26t-18 8q-36 0 -71 -11v23l136 38h20v-381q0 -25 21 -35.5t69 -10.5v-20z" />
    <glyph glyph-name="ordmasculine" unicode="&#xba;" horiz-adv-x="432" 
d="M216 643q84 0 135 -52.5t51 -141.5q0 -101 -51.5 -153.5t-134.5 -52.5q-85 0 -135.5 52t-50.5 153q0 87 51 141t135 54zM214 607q-49 0 -77 -40t-28 -115q0 -172 108 -172q52 0 78.5 38t26.5 130q0 159 -108 159z" />
    <glyph glyph-name="guillemotright" unicode="&#xbb;" horiz-adv-x="517" 
d="M274 249v-23q-78 -70 -200 -192l-23 21l138 182v6l-62 82l-74 97l23 20zM484 249v-23q-78 -70 -200 -192l-23 21l138 182v6l-135 179l22 20z" />
    <glyph glyph-name="onequarter" unicode="&#xbc;" horiz-adv-x="861" 
d="M281 252h-232v27q50 0 64.5 10t14.5 39v241q0 38 -28 38q-12 0 -57 -10v30l125 36h33v-335q0 -29 15.5 -39t64.5 -10v-27zM667 692l-426 -712h-52l426 712h52zM834 98h-70v-98h-70v98h-199v45l218 270h51v-257h70v-58zM694 156v169h-5l-132 -166v-3h137z" />
    <glyph glyph-name="onehalf" unicode="&#xbd;" horiz-adv-x="889" 
d="M281 252h-232v27q50 0 64.5 10t14.5 39v241q0 38 -28 38q-12 0 -57 -10v30l125 36h33v-335q0 -29 15.5 -39t64.5 -10v-27zM667 692l-426 -712h-52l426 712h52zM867 127l-25 -127h-296v37l102 85q69 54 93 86.5t24 82.5q0 72 -83 72q-74 0 -114 -53l-20 9q19 44 59.5 70.5
t93.5 26.5q67 0 105 -31.5t38 -85.5q0 -47 -29.5 -82t-100.5 -86l-89 -65v-5l57 3h88q30 0 42 12.5t28 50.5h27z" />
    <glyph glyph-name="threequarters" unicode="&#xbe;" horiz-adv-x="861" 
d="M55 558l-22 10q22 49 60.5 74.5t86.5 25.5q59 0 93 -25t34 -64q0 -63 -86 -98v-5q49 -10 78.5 -37.5t29.5 -69.5q0 -65 -58.5 -95t-150.5 -30q-87 0 -87 44q0 36 31 36q13 0 49.5 -21t59.5 -21q83 0 83 73q0 87 -132 87h-14v35h14q43 0 77.5 22.5t34.5 57.5q0 28 -22 43
t-56 15q-68 0 -103 -57zM667 692l-426 -712h-52l426 712h52zM834 98h-70v-98h-70v98h-199v45l218 270h51v-257h70v-58zM694 156v169h-5l-132 -166v-3h137z" />
    <glyph glyph-name="questiondown" unicode="&#xbf;" horiz-adv-x="411" 
d="M191 303h39v-26q0 -43 -17.5 -83t-38 -68t-38 -73t-17.5 -97q0 -114 105 -114q43 0 64.5 15t21.5 39q0 17 -10.5 35t-10.5 37q0 22 13 33t32 11q51 0 51 -70q0 -61 -47 -99.5t-123 -38.5q-79 0 -132 38t-53 111q0 41 16.5 80t40 70.5t47.5 60.5t40.5 61t16.5 62v16z
M153 426q0 24 15 40t42 16q28 0 43 -15.5t15 -41.5q0 -25 -16 -42t-42 -17q-27 0 -42 17.5t-15 42.5z" />
    <glyph glyph-name="Agrave" unicode="&#xc0;" horiz-adv-x="718" 
d="M714 0h-269v30q69 0 69 37q0 23 -17 62l-39 90h-256l-45 -106q-11 -29 -11 -49t15 -27t52 -7v-30h-210v30q42 0 62 22t56 108l212 502h41l237 -543q23 -51 43.5 -70t59.5 -19v-30zM443 259l-110 280h-3l-113 -280h226zM346 826l105 -128h-47l-158 107v21h100z" />
    <glyph glyph-name="Aacute" unicode="&#xc1;" horiz-adv-x="718" 
d="M714 0h-269v30q69 0 69 37q0 23 -17 62l-39 90h-256l-45 -106q-11 -29 -11 -49t15 -27t52 -7v-30h-210v30q42 0 62 22t56 108l212 502h41l237 -543q23 -51 43.5 -70t59.5 -19v-30zM443 259l-110 280h-3l-113 -280h226zM258 698l105 128h100v-21l-159 -107h-46z" />
    <glyph glyph-name="Acircumflex" unicode="&#xc2;" horiz-adv-x="718" 
d="M714 0h-269v30q69 0 69 37q0 23 -17 62l-39 90h-256l-45 -106q-11 -29 -11 -49t15 -27t52 -7v-30h-210v30q42 0 62 22t56 108l212 502h41l237 -543q23 -51 43.5 -70t59.5 -19v-30zM443 259l-110 280h-3l-113 -280h226zM501 698h-40l-107 81l-105 -81h-42l112 138h72z" />
    <glyph glyph-name="Atilde" unicode="&#xc3;" horiz-adv-x="718" 
d="M714 0h-269v30q69 0 69 37q0 23 -17 62l-39 90h-256l-45 -106q-11 -29 -11 -49t15 -27t52 -7v-30h-210v30q42 0 62 22t56 108l212 502h41l237 -543q23 -51 43.5 -70t59.5 -19v-30zM443 259l-110 280h-3l-113 -280h226zM496 816h26q-22 -102 -106 -102q-30 0 -72 18.5
t-65 18.5q-44 0 -57 -39h-26q9 47 36.5 73t65.5 26q32 0 74.5 -18t64.5 -18q45 0 59 41z" />
    <glyph glyph-name="Adieresis" unicode="&#xc4;" horiz-adv-x="718" 
d="M714 0h-269v30q69 0 69 37q0 23 -17 62l-39 90h-256l-45 -106q-11 -29 -11 -49t15 -27t52 -7v-30h-210v30q42 0 62 22t56 108l212 502h41l237 -543q23 -51 43.5 -70t59.5 -19v-30zM443 259l-110 280h-3l-113 -280h226zM523 763q0 -23 -15 -38t-41 -15q-27 0 -41.5 15
t-14.5 38q0 24 15 39t41 15t41 -15t15 -39zM298 763q0 -23 -15.5 -38t-41.5 -15q-27 0 -41.5 15t-14.5 38q0 24 15 39t41 15q27 0 42 -15t15 -39z" />
    <glyph glyph-name="Aring" unicode="&#xc5;" horiz-adv-x="718" 
d="M714 0h-269v30q69 0 69 37q0 23 -17 62l-39 90h-256l-45 -106q-11 -29 -11 -49t15 -27t52 -7v-30h-210v30q42 0 62 22t56 108l212 502h41l237 -543q23 -51 43.5 -70t59.5 -19v-30zM443 259l-110 280h-3l-113 -280h226zM456 804q0 -45 -28.5 -70t-74.5 -25q-45 0 -73.5 25
t-28.5 70q0 43 28.5 69t73.5 26q46 0 74.5 -26t28.5 -69zM412 804q0 27 -15.5 43.5t-43.5 16.5t-43.5 -16.5t-15.5 -43.5t15.5 -43.5t43.5 -16.5q59 0 59 60z" />
    <glyph glyph-name="AE" unicode="&#xc6;" horiz-adv-x="894" 
d="M865 186l-29 -186h-520v30q67 0 82 18.5t15 96.5v156h-171l-100 -182q-16 -25 -16 -51q0 -22 15.5 -30t52.5 -8v-30h-216v30q40 0 62.5 21.5t55.5 82.5l234 420q13 26 13 42q0 19 -13 25t-45 6v30h543l6 -164h-32q-10 75 -40.5 97t-121.5 22h-135v-272h104
q68 0 89.5 19.5t21.5 80.5h34v-228h-34q0 59 -20 74t-91 15h-104v-257h116q61 0 93.5 4.5t56 22.5t35 41.5t27.5 73.5h32zM413 340v272h-7l-147 -272h154z" />
    <glyph glyph-name="Ccedilla" unicode="&#xc7;" horiz-adv-x="670" 
d="M608 149l24 -21q-93 -139 -268 -139q-2 0 -6.5 0.5t-6.5 0.5l-10 -47q12 2 28 2q39 0 60.5 -19t21.5 -54q0 -40 -28.5 -63.5t-75.5 -23.5q-38 0 -83 35l10 23q31 -19 64 -19q55 0 55 44q0 42 -43 42l-31 -3l-14 11l18 73q-131 13 -202 105t-71 232q0 160 90.5 250.5
t237.5 90.5q62 0 113 -18t54 -18q5 0 8.5 1.5t7 6l5.5 7t6.5 10.5t6.5 11h30v-229h-34q-31 186 -196 186q-107 0 -166 -76.5t-59 -211.5q0 -144 64 -215t175 -71q126 0 215 97z" />
    <glyph glyph-name="Egrave" unicode="&#xc8;" horiz-adv-x="626" 
d="M598 186l-28 -186h-534v30q62 0 79.5 15t17.5 73v417q0 57 -18 74.5t-79 17.5v30h525l6 -164h-32q-11 75 -41 97t-122 22h-147v-254h117q69 0 90.5 19.5t21.5 80.5h32v-232h-32q0 60 -20.5 76.5t-91.5 16.5h-117v-275h129q79 -1 117 11.5t56 39t39 91.5h32zM312 826
l105 -128h-47l-158 107v21h100z" />
    <glyph glyph-name="Eacute" unicode="&#xc9;" horiz-adv-x="626" 
d="M598 186l-28 -186h-534v30q62 0 79.5 15t17.5 73v417q0 57 -18 74.5t-79 17.5v30h525l6 -164h-32q-11 75 -41 97t-122 22h-147v-254h117q69 0 90.5 19.5t21.5 80.5h32v-232h-32q0 60 -20.5 76.5t-91.5 16.5h-117v-275h129q79 -1 117 11.5t56 39t39 91.5h32zM224 698
l105 128h100v-21l-159 -107h-46z" />
    <glyph glyph-name="Ecircumflex" unicode="&#xca;" horiz-adv-x="626" 
d="M598 186l-28 -186h-534v30q62 0 79.5 15t17.5 73v417q0 57 -18 74.5t-79 17.5v30h525l6 -164h-32q-11 75 -41 97t-122 22h-147v-254h117q69 0 90.5 19.5t21.5 80.5h32v-232h-32q0 60 -20.5 76.5t-91.5 16.5h-117v-275h129q79 -1 117 11.5t56 39t39 91.5h32zM467 698h-40
l-107 81l-105 -81h-42l112 138h72z" />
    <glyph glyph-name="Edieresis" unicode="&#xcb;" horiz-adv-x="626" 
d="M598 186l-28 -186h-534v30q62 0 79.5 15t17.5 73v417q0 57 -18 74.5t-79 17.5v30h525l6 -164h-32q-11 75 -41 97t-122 22h-147v-254h117q69 0 90.5 19.5t21.5 80.5h32v-232h-32q0 60 -20.5 76.5t-91.5 16.5h-117v-275h129q79 -1 117 11.5t56 39t39 91.5h32zM489 763
q0 -23 -15 -38t-41 -15q-27 0 -41.5 15t-14.5 38q0 24 15 39t41 15t41 -15t15 -39zM264 763q0 -23 -15.5 -38t-41.5 -15q-27 0 -41.5 15t-14.5 38q0 24 15 39t41 15q27 0 42 -15t15 -39z" />
    <glyph glyph-name="Igrave" unicode="&#xcc;" horiz-adv-x="357" 
d="M133 131v394q0 34 -2 49.5t-12 30t-29.5 18.5t-55.5 4v30h288v-30q-67 0 -82.5 -19t-15.5 -83v-394q0 -66 16 -83.5t82 -17.5v-30h-288v30q66 0 82.5 17.5t16.5 83.5zM171 826l105 -128h-47l-158 107v21h100z" />
    <glyph glyph-name="Iacute" unicode="&#xcd;" horiz-adv-x="357" 
d="M133 131v394q0 34 -2 49.5t-12 30t-29.5 18.5t-55.5 4v30h288v-30q-67 0 -82.5 -19t-15.5 -83v-394q0 -66 16 -83.5t82 -17.5v-30h-288v30q66 0 82.5 17.5t16.5 83.5zM83 698l105 128h100v-21l-159 -107h-46z" />
    <glyph glyph-name="Icircumflex" unicode="&#xce;" horiz-adv-x="357" 
d="M133 131v394q0 34 -2 49.5t-12 30t-29.5 18.5t-55.5 4v30h288v-30q-67 0 -82.5 -19t-15.5 -83v-394q0 -66 16 -83.5t82 -17.5v-30h-288v30q66 0 82.5 17.5t16.5 83.5zM326 698h-40l-107 81l-105 -81h-42l112 138h72z" />
    <glyph glyph-name="Idieresis" unicode="&#xcf;" horiz-adv-x="357" 
d="M133 131v394q0 34 -2 49.5t-12 30t-29.5 18.5t-55.5 4v30h288v-30q-67 0 -82.5 -19t-15.5 -83v-394q0 -66 16 -83.5t82 -17.5v-30h-288v30q66 0 82.5 17.5t16.5 83.5zM348 763q0 -23 -15 -38t-41 -15q-27 0 -41.5 15t-14.5 38q0 24 15 39t41 15t41 -15t15 -39zM123 763
q0 -23 -15.5 -38t-41.5 -15q-27 0 -41.5 15t-14.5 38q0 24 15 39t41 15q27 0 42 -15t15 -39z" />
    <glyph glyph-name="Eth" unicode="&#xd0;" horiz-adv-x="737" 
d="M40 309v48h98v186q0 53 -20 68.5t-78 15.5v30h275q81 0 146 -17.5t117 -54.5t80 -102t28 -154q0 -167 -95.5 -248t-264.5 -81h-286v30q65 0 81.5 16.5t16.5 77.5v185h-98zM230 614v-257h171v-48h-171v-268q30 -3 59 -3q145 0 216 62.5t71 219.5q0 148 -72 222t-225 74
q-29 0 -49 -2z" />
    <glyph glyph-name="Ntilde" unicode="&#xd1;" horiz-adv-x="742" 
d="M715 657v-30q-44 0 -65 -20q-26 -23 -26 -114v-501h-33l-414 535h-5v-378q0 -75 17 -97t74 -22v-30h-234v30q59 0 76.5 21.5t17.5 97.5v427q-24 31 -42.5 41t-51.5 10v30h170l370 -483h5v324q0 82 -19 104q-21 25 -76 25v30h236zM521 816h26q-22 -102 -106 -102
q-30 0 -72 18.5t-65 18.5q-44 0 -57 -39h-26q9 47 36.5 73t65.5 26q32 0 74.5 -18t64.5 -18q45 0 59 41z" />
    <glyph glyph-name="Ograve" unicode="&#xd2;" horiz-adv-x="737" 
d="M687 338q0 -158 -86 -254t-232 -96q-149 0 -234 91t-85 250q0 154 86 247t233 93q148 0 233 -90.5t85 -240.5zM582 335q0 134 -59 213t-157 79q-97 0 -154 -78t-57 -214q0 -144 54.5 -224.5t160.5 -80.5q212 0 212 305zM360 826l105 -128h-47l-158 107v21h100z" />
    <glyph glyph-name="Oacute" unicode="&#xd3;" horiz-adv-x="737" 
d="M687 338q0 -158 -86 -254t-232 -96q-149 0 -234 91t-85 250q0 154 86 247t233 93q148 0 233 -90.5t85 -240.5zM582 335q0 134 -59 213t-157 79q-97 0 -154 -78t-57 -214q0 -144 54.5 -224.5t160.5 -80.5q212 0 212 305zM272 698l105 128h100v-21l-159 -107h-46z" />
    <glyph glyph-name="Ocircumflex" unicode="&#xd4;" horiz-adv-x="737" 
d="M687 338q0 -158 -86 -254t-232 -96q-149 0 -234 91t-85 250q0 154 86 247t233 93q148 0 233 -90.5t85 -240.5zM582 335q0 134 -59 213t-157 79q-97 0 -154 -78t-57 -214q0 -144 54.5 -224.5t160.5 -80.5q212 0 212 305zM515 698h-40l-107 81l-105 -81h-42l112 138h72z
" />
    <glyph glyph-name="Otilde" unicode="&#xd5;" horiz-adv-x="737" 
d="M687 338q0 -158 -86 -254t-232 -96q-149 0 -234 91t-85 250q0 154 86 247t233 93q148 0 233 -90.5t85 -240.5zM582 335q0 134 -59 213t-157 79q-97 0 -154 -78t-57 -214q0 -144 54.5 -224.5t160.5 -80.5q212 0 212 305zM510 816h26q-22 -102 -106 -102q-30 0 -72 18.5
t-65 18.5q-44 0 -57 -39h-26q9 47 36.5 73t65.5 26q32 0 74.5 -18t64.5 -18q45 0 59 41z" />
    <glyph glyph-name="Odieresis" unicode="&#xd6;" horiz-adv-x="737" 
d="M687 338q0 -158 -86 -254t-232 -96q-149 0 -234 91t-85 250q0 154 86 247t233 93q148 0 233 -90.5t85 -240.5zM582 335q0 134 -59 213t-157 79q-97 0 -154 -78t-57 -214q0 -144 54.5 -224.5t160.5 -80.5q212 0 212 305zM537 763q0 -23 -15 -38t-41 -15q-27 0 -41.5 15
t-14.5 38q0 24 15 39t41 15t41 -15t15 -39zM312 763q0 -23 -15.5 -38t-41.5 -15q-27 0 -41.5 15t-14.5 38q0 24 15 39t41 15q27 0 42 -15t15 -39z" />
    <glyph glyph-name="multiply" unicode="&#xd7;" horiz-adv-x="655" 
d="M611 22l-47 -48l-237 236l-236 -236l-47 47l235 237l-235 236l48 47l235 -235l237 235l47 -46l-235 -237z" />
    <glyph glyph-name="Oslash" unicode="&#xd8;" horiz-adv-x="737" 
d="M106 -20l-31 24l59 76q-84 89 -84 249q0 154 86 247t233 93q109 0 185 -51l45 57l31 -24l-44 -57q101 -92 101 -256q0 -158 -86 -254t-232 -96q-126 0 -206 65zM582 335q0 117 -47 194h-2l-324 -418q56 -81 161 -81q212 0 212 305zM155 335q0 -113 33 -186h2l321 413
q-57 65 -145 65q-97 0 -154 -78t-57 -214z" />
    <glyph glyph-name="Ugrave" unicode="&#xd9;" horiz-adv-x="752" 
d="M734 657v-30q-63 0 -78.5 -22.5t-15.5 -102.5v-241q0 -139 -63.5 -206t-203.5 -67q-134 0 -194.5 61.5t-60.5 200.5v289q0 53 -19.5 70.5t-78.5 17.5v30h288v-30q-62 0 -80 -17.5t-18 -75.5v-283q0 -102 42.5 -151t145.5 -49q98 0 141.5 46t43.5 150v252q0 81 -16 104.5
t-78 23.5v30h245zM391 826l105 -128h-47l-158 107v21h100z" />
    <glyph glyph-name="Uacute" unicode="&#xda;" horiz-adv-x="752" 
d="M734 657v-30q-63 0 -78.5 -22.5t-15.5 -102.5v-241q0 -139 -63.5 -206t-203.5 -67q-134 0 -194.5 61.5t-60.5 200.5v289q0 53 -19.5 70.5t-78.5 17.5v30h288v-30q-62 0 -80 -17.5t-18 -75.5v-283q0 -102 42.5 -151t145.5 -49q98 0 141.5 46t43.5 150v252q0 81 -16 104.5
t-78 23.5v30h245zM303 698l105 128h100v-21l-159 -107h-46z" />
    <glyph glyph-name="Ucircumflex" unicode="&#xdb;" horiz-adv-x="752" 
d="M734 657v-30q-63 0 -78.5 -22.5t-15.5 -102.5v-241q0 -139 -63.5 -206t-203.5 -67q-134 0 -194.5 61.5t-60.5 200.5v289q0 53 -19.5 70.5t-78.5 17.5v30h288v-30q-62 0 -80 -17.5t-18 -75.5v-283q0 -102 42.5 -151t145.5 -49q98 0 141.5 46t43.5 150v252q0 81 -16 104.5
t-78 23.5v30h245zM546 698h-40l-107 81l-105 -81h-42l112 138h72z" />
    <glyph glyph-name="Udieresis" unicode="&#xdc;" horiz-adv-x="752" 
d="M734 657v-30q-63 0 -78.5 -22.5t-15.5 -102.5v-241q0 -139 -63.5 -206t-203.5 -67q-134 0 -194.5 61.5t-60.5 200.5v289q0 53 -19.5 70.5t-78.5 17.5v30h288v-30q-62 0 -80 -17.5t-18 -75.5v-283q0 -102 42.5 -151t145.5 -49q98 0 141.5 46t43.5 150v252q0 81 -16 104.5
t-78 23.5v30h245zM568 763q0 -23 -15 -38t-41 -15q-27 0 -41.5 15t-14.5 38q0 24 15 39t41 15t41 -15t15 -39zM343 763q0 -23 -15.5 -38t-41.5 -15q-27 0 -41.5 15t-14.5 38q0 24 15 39t41 15q27 0 42 -15t15 -39z" />
    <glyph glyph-name="Yacute" unicode="&#xdd;" horiz-adv-x="647" 
d="M652 657v-30q-46 -4 -71 -22t-61 -77l-148 -247v-150q0 -65 20 -83t84 -18v-30h-296v30q66 0 83 17t17 84v145l-127 205q-58 95 -88.5 120.5t-69.5 25.5v30h269v-30q-67 0 -67 -23q0 -20 17 -46l90 -144l44 -78h6l132 225q12 19 12 39q0 14 -13.5 20.5t-50.5 6.5v30h218z
M244 698l105 128h100v-21l-159 -107h-46z" />
    <glyph glyph-name="Thorn" unicode="&#xde;" horiz-adv-x="572" 
d="M133 131v394q0 34 -2 49.5t-12 30t-29.5 18.5t-55.5 4v30h298v-30q-62 0 -85 -19.5t-23 -66.5v-16q43 5 74 5q244 0 244 -166q0 -56 -22 -96.5t-61 -62t-83 -31.5t-97 -10q-3 0 -55 7v-40q0 -63 20.5 -82t87.5 -19v-30h-298v30q67 0 83 17t16 84zM276 493q-20 0 -52 -3
v-280q17 -4 50 -4q86 0 126.5 33.5t40.5 116.5q0 137 -165 137z" />
    <glyph glyph-name="germandbls" unicode="&#xdf;" horiz-adv-x="563" 
d="M102 97v332h-71v42h71v11q0 121 47 176t148 55q83 0 128.5 -36.5t45.5 -106.5q0 -61 -38 -99t-120 -60v-4q40 -6 77 -21t70 -40t52.5 -66t19.5 -91q0 -101 -54.5 -148t-135.5 -47q-47 0 -78 23.5t-31 57.5q0 22 11.5 35t32.5 13q18 0 31 -15t19 -33.5t16 -33.5t24 -15
q71 0 71 152q0 87 -51 141t-122 62v46q63 10 92.5 40t29.5 97q0 61 -24 89t-74 28t-76.5 -24.5t-26.5 -91.5v-565h-164v29q45 0 62.5 12t17.5 56z" />
    <glyph glyph-name="agrave" unicode="&#xe0;" horiz-adv-x="480" 
d="M308 62h-4q-42 -36 -72.5 -52.5t-74.5 -16.5q-56 0 -87.5 31t-31.5 81q0 32 14.5 58t33.5 42.5t52 31.5t55.5 22t59 17t48.5 14v44q0 64 -22 92t-68 28q-41 0 -54 -17t-13 -64q0 -46 -44 -46q-17 0 -29.5 12.5t-12.5 35.5q0 44 49 77t127 33q80 0 115 -37t35 -117v-227
q0 -29 6.5 -39t23.5 -10q24 0 47 25l15 -16q-26 -38 -48.5 -53.5t-59.5 -15.5q-31 0 -43 15.5t-17 51.5zM301 92v165q-41 -10 -67 -19t-53.5 -24t-41 -36t-13.5 -49q0 -37 19.5 -59t52.5 -22q50 0 103 44zM215 674l70 -153h-39l-123 135v18h92z" />
    <glyph glyph-name="aacute" unicode="&#xe1;" horiz-adv-x="480" 
d="M308 62h-4q-42 -36 -72.5 -52.5t-74.5 -16.5q-56 0 -87.5 31t-31.5 81q0 32 14.5 58t33.5 42.5t52 31.5t55.5 22t59 17t48.5 14v44q0 64 -22 92t-68 28q-41 0 -54 -17t-13 -64q0 -46 -44 -46q-17 0 -29.5 12.5t-12.5 35.5q0 44 49 77t127 33q80 0 115 -37t35 -117v-227
q0 -29 6.5 -39t23.5 -10q24 0 47 25l15 -16q-26 -38 -48.5 -53.5t-59.5 -15.5q-31 0 -43 15.5t-17 51.5zM301 92v165q-41 -10 -67 -19t-53.5 -24t-41 -36t-13.5 -49q0 -37 19.5 -59t52.5 -22q50 0 103 44zM177 521l70 153h93v-18l-124 -135h-39z" />
    <glyph glyph-name="acircumflex" unicode="&#xe2;" horiz-adv-x="480" 
d="M308 62h-4q-42 -36 -72.5 -52.5t-74.5 -16.5q-56 0 -87.5 31t-31.5 81q0 32 14.5 58t33.5 42.5t52 31.5t55.5 22t59 17t48.5 14v44q0 64 -22 92t-68 28q-41 0 -54 -17t-13 -64q0 -46 -44 -46q-17 0 -29.5 12.5t-12.5 35.5q0 44 49 77t127 33q80 0 115 -37t35 -117v-227
q0 -29 6.5 -39t23.5 -10q24 0 47 25l15 -16q-26 -38 -48.5 -53.5t-59.5 -15.5q-31 0 -43 15.5t-17 51.5zM301 92v165q-41 -10 -67 -19t-53.5 -24t-41 -36t-13.5 -49q0 -37 19.5 -59t52.5 -22q50 0 103 44zM372 521h-38l-103 98l-102 -98h-39l108 153h66z" />
    <glyph glyph-name="atilde" unicode="&#xe3;" horiz-adv-x="480" 
d="M308 62h-4q-42 -36 -72.5 -52.5t-74.5 -16.5q-56 0 -87.5 31t-31.5 81q0 32 14.5 58t33.5 42.5t52 31.5t55.5 22t59 17t48.5 14v44q0 64 -22 92t-68 28q-41 0 -54 -17t-13 -64q0 -46 -44 -46q-17 0 -29.5 12.5t-12.5 35.5q0 44 49 77t127 33q80 0 115 -37t35 -117v-227
q0 -29 6.5 -39t23.5 -10q24 0 47 25l15 -16q-26 -38 -48.5 -53.5t-59.5 -15.5q-31 0 -43 15.5t-17 51.5zM301 92v165q-41 -10 -67 -19t-53.5 -24t-41 -36t-13.5 -49q0 -37 19.5 -59t52.5 -22q50 0 103 44zM370 642h26q-11 -56 -37 -81t-69 -25q-28 0 -69 21.5t-64 21.5
q-43 0 -55 -46h-27q8 49 35.5 77t65.5 28q30 0 71.5 -21.5t64.5 -21.5q43 0 58 47z" />
    <glyph glyph-name="adieresis" unicode="&#xe4;" horiz-adv-x="480" 
d="M308 62h-4q-42 -36 -72.5 -52.5t-74.5 -16.5q-56 0 -87.5 31t-31.5 81q0 32 14.5 58t33.5 42.5t52 31.5t55.5 22t59 17t48.5 14v44q0 64 -22 92t-68 28q-41 0 -54 -17t-13 -64q0 -46 -44 -46q-17 0 -29.5 12.5t-12.5 35.5q0 44 49 77t127 33q80 0 115 -37t35 -117v-227
q0 -29 6.5 -39t23.5 -10q24 0 47 25l15 -16q-26 -38 -48.5 -53.5t-59.5 -15.5q-31 0 -43 15.5t-17 51.5zM301 92v165q-41 -10 -67 -19t-53.5 -24t-41 -36t-13.5 -49q0 -37 19.5 -59t52.5 -22q50 0 103 44zM396 607q0 -25 -15 -40.5t-41 -15.5t-41 15.5t-15 40.5q0 24 15 39
t41 15t41 -15t15 -39zM176 607q0 -25 -14.5 -40.5t-40.5 -15.5q-27 0 -41.5 15.5t-14.5 40.5q0 24 15 39t41 15q25 0 40 -15t15 -39z" />
    <glyph glyph-name="aring" unicode="&#xe5;" horiz-adv-x="480" 
d="M308 62h-4q-42 -36 -72.5 -52.5t-74.5 -16.5q-56 0 -87.5 31t-31.5 81q0 32 14.5 58t33.5 42.5t52 31.5t55.5 22t59 17t48.5 14v44q0 64 -22 92t-68 28q-41 0 -54 -17t-13 -64q0 -46 -44 -46q-17 0 -29.5 12.5t-12.5 35.5q0 44 49 77t127 33q80 0 115 -37t35 -117v-227
q0 -29 6.5 -39t23.5 -10q24 0 47 25l15 -16q-26 -38 -48.5 -53.5t-59.5 -15.5q-31 0 -43 15.5t-17 51.5zM301 92v165q-41 -10 -67 -19t-53.5 -24t-41 -36t-13.5 -49q0 -37 19.5 -59t52.5 -22q50 0 103 44zM333 629q0 -47 -28.5 -73t-74.5 -26q-44 0 -73 26.5t-29 73.5
q0 44 29 71.5t73 27.5q45 0 74 -27.5t29 -72.5zM289 630q0 28 -15.5 45.5t-43.5 17.5t-43 -17.5t-15 -45.5q0 -63 58 -63q59 0 59 63z" />
    <glyph glyph-name="ae" unicode="&#xe6;" horiz-adv-x="709" 
d="M659 143l20 -14q-31 -66 -73.5 -102.5t-113.5 -36.5q-114 0 -171 88h-4q-71 -85 -167 -85q-49 0 -80.5 30.5t-31.5 79.5q0 27 8.5 49.5t27 39.5t36 30t46.5 24l46 17t48 14.5t41 11.5v45q0 64 -20 92t-64 28q-41 0 -54 -17t-13 -64q0 -46 -44 -46q-17 0 -29.5 12.5
t-12.5 35.5q0 44 48 77t124 33q90 0 123 -62h5q51 62 140 62q79 0 128 -58t53 -161h-301q0 -201 142 -201q55 0 84 19t59 59zM291 256q-40 -11 -64 -19.5t-50.5 -23t-39 -35.5t-12.5 -49q0 -37 19.5 -59t50.5 -22q54 0 109 60q-13 60 -13 148zM374 303h207q-2 61 -29 101.5
t-77 40.5q-96 0 -101 -142z" />
    <glyph glyph-name="ccedilla" unicode="&#xe7;" horiz-adv-x="446" 
d="M408 148l19 -14q-32 -67 -72.5 -103.5t-108.5 -39.5l-12 -48q1 0 10.5 1t18.5 1q38 0 59.5 -19t21.5 -54q0 -40 -28 -63.5t-76 -23.5q-36 0 -83 35l10 23q31 -19 65 -19q54 0 54 44q0 42 -43 42q-8 0 -19 -1.5t-12 -1.5l-13 11l17 73q-85 6 -134 69.5t-49 165.5
q0 119 59.5 189t166.5 70q69 0 110.5 -30.5t41.5 -75.5t-42 -45q-25 0 -39 18t-19.5 39t-22.5 39t-46 18q-62 0 -96 -45t-34 -130q0 -95 38.5 -151.5t113.5 -56.5q47 0 78 18.5t66 64.5z" />
    <glyph glyph-name="egrave" unicode="&#xe8;" horiz-adv-x="464" 
d="M415 143l19 -14q-31 -66 -73.5 -102.5t-113.5 -36.5q-93 0 -153 65.5t-60 182.5q0 120 59 183.5t152 63.5q83 0 132.5 -57.5t53.5 -161.5h-316q0 -98 45.5 -149.5t110.5 -51.5q55 0 84.5 19.5t59.5 58.5zM114 303h223q-2 60 -29.5 101t-77.5 41q-104 0 -116 -142z
M226 674l70 -153h-39l-123 135v18h92z" />
    <glyph glyph-name="eacute" unicode="&#xe9;" horiz-adv-x="464" 
d="M415 143l19 -14q-31 -66 -73.5 -102.5t-113.5 -36.5q-93 0 -153 65.5t-60 182.5q0 120 59 183.5t152 63.5q83 0 132.5 -57.5t53.5 -161.5h-316q0 -98 45.5 -149.5t110.5 -51.5q55 0 84.5 19.5t59.5 58.5zM114 303h223q-2 60 -29.5 101t-77.5 41q-104 0 -116 -142z
M188 521l70 153h93v-18l-124 -135h-39z" />
    <glyph glyph-name="ecircumflex" unicode="&#xea;" horiz-adv-x="464" 
d="M415 143l19 -14q-31 -66 -73.5 -102.5t-113.5 -36.5q-93 0 -153 65.5t-60 182.5q0 120 59 183.5t152 63.5q83 0 132.5 -57.5t53.5 -161.5h-316q0 -98 45.5 -149.5t110.5 -51.5q55 0 84.5 19.5t59.5 58.5zM114 303h223q-2 60 -29.5 101t-77.5 41q-104 0 -116 -142z
M383 521h-38l-103 98l-102 -98h-39l108 153h66z" />
    <glyph glyph-name="edieresis" unicode="&#xeb;" horiz-adv-x="464" 
d="M415 143l19 -14q-31 -66 -73.5 -102.5t-113.5 -36.5q-93 0 -153 65.5t-60 182.5q0 120 59 183.5t152 63.5q83 0 132.5 -57.5t53.5 -161.5h-316q0 -98 45.5 -149.5t110.5 -51.5q55 0 84.5 19.5t59.5 58.5zM114 303h223q-2 60 -29.5 101t-77.5 41q-104 0 -116 -142z
M407 607q0 -25 -15 -40.5t-41 -15.5t-41 15.5t-15 40.5q0 24 15 39t41 15t41 -15t15 -39zM187 607q0 -25 -14.5 -40.5t-40.5 -15.5q-27 0 -41.5 15.5t-14.5 40.5q0 24 15 39t41 15q25 0 40 -15t15 -39z" />
    <glyph glyph-name="igrave" unicode="&#xec;" horiz-adv-x="285" 
d="M257 28v-28h-225v28q48 0 59 13.5t11 59.5v279q0 30 -10 38.5t-34 8.5l-25 -2v29l126 28h26v-381q0 -46 12 -59.5t60 -13.5zM109 674l70 -153h-39l-123 135v18h92z" />
    <glyph glyph-name="iacute" unicode="&#xed;" horiz-adv-x="285" 
d="M257 28v-28h-225v28q48 0 59 13.5t11 59.5v279q0 30 -10 38.5t-34 8.5l-25 -2v29l126 28h26v-381q0 -46 12 -59.5t60 -13.5zM71 521l70 153h93v-18l-124 -135h-39z" />
    <glyph glyph-name="icircumflex" unicode="&#xee;" horiz-adv-x="285" 
d="M257 521h-39l-93 98l-93 -98h-38l98 153h66zM257 28v-28h-225v28q48 0 59 13.5t11 59.5v279q0 30 -10 38.5t-34 8.5l-25 -2v29l126 28h26v-381q0 -46 12 -59.5t60 -13.5z" />
    <glyph glyph-name="idieresis" unicode="&#xef;" horiz-adv-x="285" 
d="M279 607q0 -25 -15 -40.5t-41 -15.5q-27 0 -41 15t-14 41q0 24 14.5 39t40.5 15t41 -15t15 -39zM83 607q0 -25 -14.5 -40.5t-40.5 -15.5q-27 0 -41.5 15.5t-14.5 40.5q0 24 15 39t41 15t40.5 -15t14.5 -39zM257 28v-28h-225v28q48 0 59 13.5t11 59.5v279q0 30 -10 38.5
t-34 8.5l-25 -2v29l126 28h26v-381q0 -46 12 -59.5t60 -13.5z" />
    <glyph glyph-name="eth" unicode="&#xf0;" horiz-adv-x="532" 
d="M253 464q72 0 125 -45l6 3q-10 96 -62 161l-121 -57l-14 30l115 57q-48 55 -128 55q-41 0 -75 -15l-11 28q54 32 116 32q95 0 166 -69l96 46l15 -32l-90 -44q92 -127 92 -315q0 -155 -62 -232t-168 -77q-104 0 -161.5 62t-57.5 178q0 105 60 169.5t159 64.5zM251 427
q-58 0 -91 -46t-33 -138q0 -214 133 -214q62 1 94.5 56t32.5 180q0 78 -34.5 120t-101.5 42z" />
    <glyph glyph-name="ntilde" unicode="&#xf1;" horiz-adv-x="576" 
d="M481 307v-206q0 -44 13 -58.5t61 -14.5v-28h-231v28q50 0 62 14t12 59v181q0 81 -25.5 110t-66.5 29q-25 0 -50.5 -12t-36.5 -21t-34 -30v-257q0 -45 12.5 -59t63.5 -14v-28h-229v28q48 0 59 14t11 59v281q0 26 -10 35t-32 9l-27 -2v29l127 29h23l-1 -81h4
q49 43 83.5 63.5t77.5 20.5q134 0 134 -178zM440 642h26q-11 -56 -37 -81t-69 -25q-28 0 -69 21.5t-64 21.5q-43 0 -55 -46h-27q8 49 35.5 77t65.5 28q30 0 71.5 -21.5t64.5 -21.5q43 0 58 47z" />
    <glyph glyph-name="ograve" unicode="&#xf2;" horiz-adv-x="514" 
d="M258 485q103 0 162.5 -64t59.5 -175q0 -123 -61 -189.5t-161 -66.5q-106 0 -165 65.5t-59 186.5q0 109 61.5 176t162.5 67zM254 447q-59 0 -93 -49t-34 -143q0 -227 135 -225q65 0 95.5 47t30.5 164q0 95 -34.5 150.5t-99.5 55.5zM245 674l70 -153h-39l-123 135v18h92z
" />
    <glyph glyph-name="oacute" unicode="&#xf3;" horiz-adv-x="514" 
d="M258 485q103 0 162.5 -64t59.5 -175q0 -123 -61 -189.5t-161 -66.5q-106 0 -165 65.5t-59 186.5q0 109 61.5 176t162.5 67zM254 447q-59 0 -93 -49t-34 -143q0 -227 135 -225q65 0 95.5 47t30.5 164q0 95 -34.5 150.5t-99.5 55.5zM207 521l70 153h93v-18l-124 -135h-39z
" />
    <glyph glyph-name="ocircumflex" unicode="&#xf4;" horiz-adv-x="514" 
d="M258 485q103 0 162.5 -64t59.5 -175q0 -123 -61 -189.5t-161 -66.5q-106 0 -165 65.5t-59 186.5q0 109 61.5 176t162.5 67zM254 447q-59 0 -93 -49t-34 -143q0 -227 135 -225q65 0 95.5 47t30.5 164q0 95 -34.5 150.5t-99.5 55.5zM402 521h-38l-103 98l-102 -98h-39
l108 153h66z" />
    <glyph glyph-name="otilde" unicode="&#xf5;" horiz-adv-x="514" 
d="M258 485q103 0 162.5 -64t59.5 -175q0 -123 -61 -189.5t-161 -66.5q-106 0 -165 65.5t-59 186.5q0 109 61.5 176t162.5 67zM254 447q-59 0 -93 -49t-34 -143q0 -227 135 -225q65 0 95.5 47t30.5 164q0 95 -34.5 150.5t-99.5 55.5zM400 642h26q-11 -56 -37 -81t-69 -25
q-28 0 -69 21.5t-64 21.5q-43 0 -55 -46h-27q8 49 35.5 77t65.5 28q30 0 71.5 -21.5t64.5 -21.5q43 0 58 47z" />
    <glyph glyph-name="odieresis" unicode="&#xf6;" horiz-adv-x="514" 
d="M258 485q103 0 162.5 -64t59.5 -175q0 -123 -61 -189.5t-161 -66.5q-106 0 -165 65.5t-59 186.5q0 109 61.5 176t162.5 67zM254 447q-59 0 -93 -49t-34 -143q0 -227 135 -225q65 0 95.5 47t30.5 164q0 95 -34.5 150.5t-99.5 55.5zM426 607q0 -25 -15 -40.5t-41 -15.5
t-41 15.5t-15 40.5q0 24 15 39t41 15t41 -15t15 -39zM206 607q0 -25 -14.5 -40.5t-40.5 -15.5q-27 0 -41.5 15.5t-14.5 40.5q0 24 15 39t41 15q25 0 40 -15t15 -39z" />
    <glyph glyph-name="divide" unicode="&#xf7;" horiz-adv-x="577" 
d="M346 470q0 -22 -17 -39t-40 -17q-24 0 -40.5 16.5t-16.5 40.5t17 40.5t41 16.5q22 0 39 -17.5t17 -40.5zM547 225h-517v68h517v-68zM346 45q0 -22 -17 -38.5t-40 -16.5q-24 0 -40.5 16t-16.5 40t17 40.5t41 16.5q22 0 39 -17.5t17 -40.5z" />
    <glyph glyph-name="oslash" unicode="&#xf8;" horiz-adv-x="514" 
d="M65 -16l-28 22l47 61q-50 64 -50 175q0 109 61.5 176t162.5 67q71 0 123 -32l32 41l29 -22l-32 -41q70 -65 70 -185q0 -123 -61 -189.5t-161 -66.5q-92 0 -150 50zM388 241q0 79 -24 130l-211 -273q33 -68 109 -68q64 0 95 47t31 164zM254 447q-59 0 -93 -49t-34 -143
q0 -69 12 -116l205 265q-35 43 -90 43z" />
    <glyph glyph-name="ugrave" unicode="&#xf9;" horiz-adv-x="570" 
d="M540 45v-27l-127 -23h-22v77h-5q-43 -42 -80.5 -62t-83.5 -20q-65 0 -98 42.5t-33 140.5v203q0 39 -12.5 48.5t-55.5 10.5v28l129 15h22v-292q0 -132 90 -132q35 0 61 14.5t62 45.5v263q0 38 -15.5 48t-65.5 10v28l140 15h24v-367q0 -43 11.5 -54.5t48.5 -11.5h10z
M259 674l70 -153h-39l-123 135v18h92z" />
    <glyph glyph-name="uacute" unicode="&#xfa;" horiz-adv-x="570" 
d="M540 45v-27l-127 -23h-22v77h-5q-43 -42 -80.5 -62t-83.5 -20q-65 0 -98 42.5t-33 140.5v203q0 39 -12.5 48.5t-55.5 10.5v28l129 15h22v-292q0 -132 90 -132q35 0 61 14.5t62 45.5v263q0 38 -15.5 48t-65.5 10v28l140 15h24v-367q0 -43 11.5 -54.5t48.5 -11.5h10z
M221 521l70 153h93v-18l-124 -135h-39z" />
    <glyph glyph-name="ucircumflex" unicode="&#xfb;" horiz-adv-x="570" 
d="M540 45v-27l-127 -23h-22v77h-5q-43 -42 -80.5 -62t-83.5 -20q-65 0 -98 42.5t-33 140.5v203q0 39 -12.5 48.5t-55.5 10.5v28l129 15h22v-292q0 -132 90 -132q35 0 61 14.5t62 45.5v263q0 38 -15.5 48t-65.5 10v28l140 15h24v-367q0 -43 11.5 -54.5t48.5 -11.5h10z
M416 521h-38l-103 98l-102 -98h-39l108 153h66z" />
    <glyph glyph-name="udieresis" unicode="&#xfc;" horiz-adv-x="570" 
d="M540 45v-27l-127 -23h-22v77h-5q-43 -42 -80.5 -62t-83.5 -20q-65 0 -98 42.5t-33 140.5v203q0 39 -12.5 48.5t-55.5 10.5v28l129 15h22v-292q0 -132 90 -132q35 0 61 14.5t62 45.5v263q0 38 -15.5 48t-65.5 10v28l140 15h24v-367q0 -43 11.5 -54.5t48.5 -11.5h10z
M440 607q0 -25 -15 -40.5t-41 -15.5t-41 15.5t-15 40.5q0 24 15 39t41 15t41 -15t15 -39zM220 607q0 -25 -14.5 -40.5t-40.5 -15.5q-27 0 -41.5 15.5t-14.5 40.5q0 24 15 39t41 15q25 0 40 -15t15 -39z" />
    <glyph glyph-name="yacute" unicode="&#xfd;" horiz-adv-x="483" 
d="M493 473v-29q-29 0 -43.5 -12.5t-25.5 -43.5l-156 -410q-42 -110 -83.5 -154.5t-102.5 -44.5q-74 0 -74 52q0 43 47 43q19 0 44.5 -11t36.5 -11q22 0 55.5 63.5t33.5 89.5q0 14 -30 82l-147 321q-16 36 -60 36v29h214v-30q-32 0 -44.5 -6.5t-12.5 -20.5q0 -10 14 -43
l98 -220l14 -52h7l96 293q5 20 5 25q0 25 -56 25v29h170zM207 521l70 153h93v-18l-124 -135h-39z" />
    <glyph glyph-name="thorn" unicode="&#xfe;" horiz-adv-x="524" 
d="M164 706v-308h3q73 87 154 87q74 0 121 -63t47 -161q0 -124 -63 -197.5t-157 -73.5q-61 0 -102 28h-3v-132q0 -48 19 -63t78 -15v-28h-254v27q46 0 59.5 14.5t13.5 58.5v714q0 30 -8 41t-32 11l-33 -2v27l131 35h26zM164 356v-261l6 -7q6 -6 7.5 -8t8 -8.5t10 -9t10 -8
t11.5 -8.5t12.5 -6.5t14 -5.5t14.5 -3.5t16 -1.5q55 0 89.5 52t34.5 152q0 184 -119 184q-35 0 -66.5 -19t-48.5 -42z" />
    <glyph glyph-name="ydieresis" unicode="&#xff;" horiz-adv-x="483" 
d="M493 473v-29q-29 0 -43.5 -12.5t-25.5 -43.5l-156 -410q-42 -110 -83.5 -154.5t-102.5 -44.5q-74 0 -74 52q0 43 47 43q19 0 44.5 -11t36.5 -11q22 0 55.5 63.5t33.5 89.5q0 14 -30 82l-147 321q-16 36 -60 36v29h214v-30q-32 0 -44.5 -6.5t-12.5 -20.5q0 -10 14 -43
l98 -220l14 -52h7l96 293q5 20 5 25q0 25 -56 25v29h170zM426 607q0 -25 -15 -40.5t-41 -15.5t-41 15.5t-15 40.5q0 24 15 39t41 15t41 -15t15 -39zM206 607q0 -25 -14.5 -40.5t-40.5 -15.5q-27 0 -41.5 15.5t-14.5 40.5q0 24 15 39t41 15q25 0 40 -15t15 -39z" />
    <glyph glyph-name="Amacron" unicode="&#x100;" horiz-adv-x="718" 
d="M714 0h-269v30q69 0 69 37q0 23 -17 62l-39 90h-256l-45 -106q-11 -29 -11 -49t15 -27t52 -7v-30h-210v30q42 0 62 22t56 108l212 502h41l237 -543q23 -51 43.5 -70t59.5 -19v-30zM443 259l-110 280h-3l-113 -280h226zM501 726h-294v53h294v-53z" />
    <glyph glyph-name="amacron" unicode="&#x101;" horiz-adv-x="480" 
d="M308 62h-4q-42 -36 -72.5 -52.5t-74.5 -16.5q-56 0 -87.5 31t-31.5 81q0 32 14.5 58t33.5 42.5t52 31.5t55.5 22t59 17t48.5 14v44q0 64 -22 92t-68 28q-41 0 -54 -17t-13 -64q0 -46 -44 -46q-17 0 -29.5 12.5t-12.5 35.5q0 44 49 77t127 33q80 0 115 -37t35 -117v-227
q0 -29 6.5 -39t23.5 -10q24 0 47 25l15 -16q-26 -38 -48.5 -53.5t-59.5 -15.5q-31 0 -43 15.5t-17 51.5zM301 92v165q-41 -10 -67 -19t-53.5 -24t-41 -36t-13.5 -49q0 -37 19.5 -59t52.5 -22q50 0 103 44zM376 555h-290v55h290v-55z" />
    <glyph glyph-name="Abreve" unicode="&#x102;" horiz-adv-x="718" 
d="M714 0h-269v30q69 0 69 37q0 23 -17 62l-39 90h-256l-45 -106q-11 -29 -11 -49t15 -27t52 -7v-30h-210v30q42 0 62 22t56 108l212 502h41l237 -543q23 -51 43.5 -70t59.5 -19v-30zM443 259l-110 280h-3l-113 -280h226zM473 865h29q-8 -79 -43.5 -116t-104.5 -37
q-142 0 -148 153h30q14 -52 40 -70.5t78 -18.5q51 0 76 18t43 71z" />
    <glyph glyph-name="abreve" unicode="&#x103;" horiz-adv-x="480" 
d="M308 62h-4q-42 -36 -72.5 -52.5t-74.5 -16.5q-56 0 -87.5 31t-31.5 81q0 32 14.5 58t33.5 42.5t52 31.5t55.5 22t59 17t48.5 14v44q0 64 -22 92t-68 28q-41 0 -54 -17t-13 -64q0 -46 -44 -46q-17 0 -29.5 12.5t-12.5 35.5q0 44 49 77t127 33q80 0 115 -37t35 -117v-227
q0 -29 6.5 -39t23.5 -10q24 0 47 25l15 -16q-26 -38 -48.5 -53.5t-59.5 -15.5q-31 0 -43 15.5t-17 51.5zM301 92v165q-41 -10 -67 -19t-53.5 -24t-41 -36t-13.5 -49q0 -37 19.5 -59t52.5 -22q50 0 103 44zM347 683h30q-8 -80 -42.5 -117t-103.5 -37q-141 0 -147 154h30
q14 -55 39 -73t78 -18q52 0 75 17.5t41 73.5z" />
    <glyph glyph-name="Aogonek" unicode="&#x104;" horiz-adv-x="719" 
d="M551 -134l14 -17q-34 -35 -60 -50t-67 -15t-65 23.5t-24 66.5q0 89 102 141l10.5 5.5t10 5t9.5 4.5t9 5t7 5t6 5t5 4.5t4 5.5l2 6t1 6q0 25 -26 81l-30 71h-256l-45 -106q-11 -29 -11 -49t15 -27t52 -7v-30h-210v30q44 0 64 24.5t62 125.5l204 482h41l237 -543
q23 -51 43.5 -70t59.5 -19v-30h-187q-49 0 -80.5 -34.5t-31.5 -75.5q0 -55 51 -55q26 0 43 6.5t41 24.5zM444 259l-110 280h-3l-113 -280h226z" />
    <glyph glyph-name="aogonek" unicode="&#x105;" horiz-adv-x="480" 
d="M308 62h-4q-42 -36 -72.5 -52.5t-74.5 -16.5q-56 0 -87.5 31t-31.5 81q0 32 14.5 58t33.5 42.5t52 31.5t55.5 22t59 17t48.5 14v44q0 64 -22 92t-68 28q-41 0 -54 -17t-13 -64q0 -46 -44 -46q-17 0 -29.5 12.5t-12.5 35.5q0 44 49 77t127 33q80 0 115 -37t35 -117v-227
q0 -29 6.5 -39t23.5 -10q24 0 47 25l15 -16q-35 -49 -61 -61q-81 -51 -81 -113q0 -55 51 -55q26 0 43 6.5t41 24.5l14 -17q-33 -34 -59.5 -49.5t-67.5 -15.5q-40 0 -65 22.5t-25 59.5q0 25 16.5 51.5t33 42t42.5 35.5v2q-26 2 -36 17t-14 48zM301 92v165q-41 -10 -67 -19
t-53.5 -24t-41 -36t-13.5 -49q0 -37 19.5 -59t52.5 -22q50 0 103 44z" />
    <glyph glyph-name="Cacute" unicode="&#x106;" horiz-adv-x="670" 
d="M608 149l24 -21q-93 -139 -268 -139q-150 0 -232 94t-82 245q0 160 90.5 250.5t237.5 90.5q62 0 113 -18t54 -18q5 0 8.5 1.5t7 6l5.5 7t6.5 10.5t6.5 11h30v-229h-34q-31 186 -196 186q-107 0 -166 -76.5t-59 -211.5q0 -144 64 -215t175 -71q126 0 215 97zM281 698
l105 128h100v-21l-159 -107h-46z" />
    <glyph glyph-name="cacute" unicode="&#x107;" horiz-adv-x="446" 
d="M408 148l19 -14q-33 -70 -76.5 -107t-117.5 -37q-92 0 -146 65t-54 171q0 119 59.5 189t166.5 70q69 0 110.5 -30.5t41.5 -75.5t-42 -45q-25 0 -39 18t-19.5 39t-22.5 39t-46 18q-62 0 -96 -45t-34 -130q0 -95 38.5 -151.5t113.5 -56.5q47 0 78 18.5t66 64.5zM187 521
l70 153h93v-18l-124 -135h-39z" />
    <glyph glyph-name="Ccircumflex" unicode="&#x108;" horiz-adv-x="670" 
d="M608 149l24 -21q-93 -139 -268 -139q-150 0 -232 94t-82 245q0 160 90.5 250.5t237.5 90.5q62 0 113 -18t54 -18q5 0 8.5 1.5t7 6l5.5 7t6.5 10.5t6.5 11h30v-229h-34q-31 186 -196 186q-107 0 -166 -76.5t-59 -211.5q0 -144 64 -215t175 -71q126 0 215 97zM524 698h-40
l-107 81l-105 -81h-42l112 138h72z" />
    <glyph glyph-name="ccircumflex" unicode="&#x109;" horiz-adv-x="446" 
d="M408 148l19 -14q-33 -70 -76.5 -107t-117.5 -37q-92 0 -146 65t-54 171q0 119 59.5 189t166.5 70q69 0 110.5 -30.5t41.5 -75.5t-42 -45q-25 0 -39 18t-19.5 39t-22.5 39t-46 18q-62 0 -96 -45t-34 -130q0 -95 38.5 -151.5t113.5 -56.5q47 0 78 18.5t66 64.5zM382 521
h-38l-103 98l-102 -98h-39l108 153h66z" />
    <glyph glyph-name="Cdotaccent" unicode="&#x10a;" horiz-adv-x="670" 
d="M608 149l24 -21q-93 -139 -268 -139q-150 0 -232 94t-82 245q0 160 90.5 250.5t237.5 90.5q62 0 113 -18t54 -18q5 0 8.5 1.5t7 6l5.5 7t6.5 10.5t6.5 11h30v-229h-34q-31 186 -196 186q-107 0 -166 -76.5t-59 -211.5q0 -144 64 -215t175 -71q126 0 215 97zM440 764
q0 -26 -16.5 -42.5t-45.5 -16.5q-31 0 -47.5 16t-16.5 43q0 26 17.5 42t46.5 16t45.5 -16t16.5 -42z" />
    <glyph glyph-name="cdotaccent" unicode="&#x10b;" horiz-adv-x="446" 
d="M408 148l19 -14q-33 -70 -76.5 -107t-117.5 -37q-92 0 -146 65t-54 171q0 119 59.5 189t166.5 70q69 0 110.5 -30.5t41.5 -75.5t-42 -45q-25 0 -39 18t-19.5 39t-22.5 39t-46 18q-62 0 -96 -45t-34 -130q0 -95 38.5 -151.5t113.5 -56.5q47 0 78 18.5t66 64.5zM297 606
q0 -25 -14.5 -40t-40.5 -15q-27 0 -42 15t-15 40t15.5 39.5t41.5 14.5t40.5 -15t14.5 -39z" />
    <glyph glyph-name="Ccaron" unicode="&#x10c;" horiz-adv-x="670" 
d="M608 149l24 -21q-93 -139 -268 -139q-150 0 -232 94t-82 245q0 160 90.5 250.5t237.5 90.5q62 0 113 -18t54 -18q5 0 8.5 1.5t7 6l5.5 7t6.5 10.5t6.5 11h30v-229h-34q-31 186 -196 186q-107 0 -166 -76.5t-59 -211.5q0 -144 64 -215t175 -71q126 0 215 97zM230 836h42
l106 -81l106 81h40l-111 -138h-71z" />
    <glyph glyph-name="ccaron" unicode="&#x10d;" horiz-adv-x="446" 
d="M408 148l19 -14q-33 -70 -76.5 -107t-117.5 -37q-92 0 -146 65t-54 171q0 119 59.5 189t166.5 70q69 0 110.5 -30.5t41.5 -75.5t-42 -45q-25 0 -39 18t-19.5 39t-22.5 39t-46 18q-62 0 -96 -45t-34 -130q0 -95 38.5 -151.5t113.5 -56.5q47 0 78 18.5t66 64.5zM100 678h39
l102 -98l103 98h38l-108 -153h-66z" />
    <glyph glyph-name="Dcaron" unicode="&#x10e;" horiz-adv-x="730" 
d="M35 657h275q81 0 146 -17t116.5 -53.5t79.5 -101t28 -153.5q0 -167 -95.5 -249.5t-263.5 -82.5h-286v30q65 0 81.5 16t16.5 78v419q0 53 -20 68.5t-78 15.5v30zM225 614v-573q30 -3 59 -3q72 0 123 13t90 44.5t58.5 88t19.5 139.5q0 293 -301 293q-30 0 -49 -2zM196 836
h42l106 -81l106 81h40l-111 -138h-71z" />
    <glyph glyph-name="dcaron" unicode="&#x10f;" horiz-adv-x="626" 
d="M514 18l-128 -23h-23v69h-4q-80 -72 -155 -72q-82 0 -126.5 63.5t-44.5 163.5q0 120 66 193t164 73q53 0 97 -24v131q0 34 -7.5 43.5t-36.5 9.5l-26 -2v28l126 35h27v-599q0 -38 10.5 -50t39.5 -12h21v-27zM360 101v264q-7 34 -31.5 57t-67.5 23q-65 0 -103 -47.5
t-38 -139.5q0 -101 33 -147.5t98 -46.5q55 0 109 37zM512 503l12 194h82v-18q-6 -88 -64 -180z" />
    <glyph glyph-name="Dcroat" unicode="&#x110;" horiz-adv-x="733" 
d="M35 309v48h98v186q0 53 -20 68.5t-78 15.5v30h275q81 0 146 -17.5t117 -54.5t80 -102t28 -154q0 -167 -95.5 -248t-264.5 -81h-286v30q65 0 81.5 16.5t16.5 77.5v185h-98zM225 614v-257h171v-48h-171v-268q30 -3 59 -3q145 0 216 62.5t71 219.5q0 148 -72 222t-225 74
q-29 0 -49 -2z" />
    <glyph glyph-name="dcroat" unicode="&#x111;" horiz-adv-x="540" 
d="M513 541h-69v-434q0 -38 10.5 -50t39.5 -12h21v-27l-129 -23h-24v69h-4q-80 -72 -154 -72q-82 0 -126.5 62.5t-44.5 161.5q0 117 66 188.5t163 71.5q51 0 97 -25v90h-150v40h150q0 42 -7 53t-37 11l-26 -2v28l127 35h28v-125h69v-40zM359 100v232q0 104 -99 104
q-65 0 -102.5 -46.5t-37.5 -136.5q0 -98 33 -143.5t98 -45.5q55 0 108 36z" />
    <glyph glyph-name="Emacron" unicode="&#x112;" horiz-adv-x="626" 
d="M598 186l-28 -186h-534v30q62 0 79.5 15t17.5 73v417q0 57 -18 74.5t-79 17.5v30h525l6 -164h-32q-11 75 -41 97t-122 22h-147v-254h117q69 0 90.5 19.5t21.5 80.5h32v-232h-32q0 60 -20.5 76.5t-91.5 16.5h-117v-275h129q79 -1 117 11.5t56 39t39 91.5h32zM467 726h-294
v53h294v-53z" />
    <glyph glyph-name="emacron" unicode="&#x113;" horiz-adv-x="464" 
d="M415 143l19 -14q-31 -66 -73.5 -102.5t-113.5 -36.5q-93 0 -153 65.5t-60 182.5q0 120 59 183.5t152 63.5q83 0 132.5 -57.5t53.5 -161.5h-316q0 -98 45.5 -149.5t110.5 -51.5q55 0 84.5 19.5t59.5 58.5zM114 303h223q-2 60 -29.5 101t-77.5 41q-104 0 -116 -142z
M387 555h-290v55h290v-55z" />
    <glyph glyph-name="Ebreve" unicode="&#x114;" horiz-adv-x="626" 
d="M598 186l-28 -186h-534v30q62 0 79.5 15t17.5 73v417q0 57 -18 74.5t-79 17.5v30h525l6 -164h-32q-11 75 -41 97t-122 22h-147v-254h117q69 0 90.5 19.5t21.5 80.5h32v-232h-32q0 60 -20.5 76.5t-91.5 16.5h-117v-275h129q79 -1 117 11.5t56 39t39 91.5h32zM439 865h29
q-8 -79 -43.5 -116t-104.5 -37q-142 0 -148 153h30q14 -52 40 -70.5t78 -18.5q51 0 76 18t43 71z" />
    <glyph glyph-name="ebreve" unicode="&#x115;" horiz-adv-x="464" 
d="M415 143l19 -14q-31 -66 -73.5 -102.5t-113.5 -36.5q-93 0 -153 65.5t-60 182.5q0 120 59 183.5t152 63.5q83 0 132.5 -57.5t53.5 -161.5h-316q0 -98 45.5 -149.5t110.5 -51.5q55 0 84.5 19.5t59.5 58.5zM114 303h223q-2 60 -29.5 101t-77.5 41q-104 0 -116 -142z
M358 683h30q-8 -80 -42.5 -117t-103.5 -37q-141 0 -147 154h30q14 -55 39 -73t78 -18q52 0 75 17.5t41 73.5z" />
    <glyph glyph-name="Edotaccent" unicode="&#x116;" horiz-adv-x="626" 
d="M598 186l-28 -186h-534v30q62 0 79.5 15t17.5 73v417q0 57 -18 74.5t-79 17.5v30h525l6 -164h-32q-11 75 -41 97t-122 22h-147v-254h117q69 0 90.5 19.5t21.5 80.5h32v-232h-32q0 60 -20.5 76.5t-91.5 16.5h-117v-275h129q79 -1 117 11.5t56 39t39 91.5h32zM383 764
q0 -26 -16.5 -42.5t-45.5 -16.5q-31 0 -47.5 16t-16.5 43q0 26 17.5 42t46.5 16t45.5 -16t16.5 -42z" />
    <glyph glyph-name="edotaccent" unicode="&#x117;" horiz-adv-x="464" 
d="M415 143l19 -14q-31 -66 -73.5 -102.5t-113.5 -36.5q-93 0 -153 65.5t-60 182.5q0 120 59 183.5t152 63.5q83 0 132.5 -57.5t53.5 -161.5h-316q0 -98 45.5 -149.5t110.5 -51.5q55 0 84.5 19.5t59.5 58.5zM114 303h223q-2 60 -29.5 101t-77.5 41q-104 0 -116 -142z
M298 606q0 -25 -14.5 -40t-40.5 -15q-27 0 -42 15t-15 40t15.5 39.5t41.5 14.5t40.5 -15t14.5 -39z" />
    <glyph glyph-name="Eogonek" unicode="&#x118;" horiz-adv-x="625" 
d="M581 -134l15 -17q-35 -35 -61 -50t-67 -15q-40 0 -65 22.5t-25 59.5q0 26 18.5 53.5t35.5 42.5t44 36v2h-440v30q62 0 79.5 15t17.5 73v417q0 57 -18.5 74.5t-78.5 17.5v30h525l5 -164h-32q-11 75 -41 97t-121 22h-148v-254h117q69 0 90.5 19.5t21.5 80.5h32v-232h-32
q0 60 -20.5 76.5t-91.5 16.5h-117v-275h129q61 0 94 4.5t56.5 22.5t35 41.5t27.5 73.5h31l-28 -186h-47q-24 -18 -36.5 -30t-26 -34t-13.5 -46q0 -55 51 -55q43 0 84 31z" />
    <glyph glyph-name="eogonek" unicode="&#x119;" horiz-adv-x="464" 
d="M375 -134l14 -17q-33 -34 -59.5 -49.5t-66.5 -15.5q-41 0 -65.5 22.5t-24.5 59.5q0 53 85 121v4q-1 0 -5 -0.5t-7 -0.5q-93 0 -152.5 65.5t-59.5 182.5q0 120 59 183.5t152 63.5q83 0 132.5 -57.5t53.5 -161.5h-316q0 -98 45.5 -149.5t110.5 -51.5q55 0 84.5 19.5
t59.5 58.5l19 -14q-44 -95 -113 -126q-81 -47 -81 -113q0 -55 51 -55q43 0 84 31zM114 303h223q-2 60 -29.5 101t-77.5 41q-104 0 -116 -142z" />
    <glyph glyph-name="Ecaron" unicode="&#x11a;" horiz-adv-x="626" 
d="M598 186l-28 -186h-534v30q62 0 79.5 15t17.5 73v417q0 57 -18 74.5t-79 17.5v30h525l6 -164h-32q-11 75 -41 97t-122 22h-147v-254h117q69 0 90.5 19.5t21.5 80.5h32v-232h-32q0 60 -20.5 76.5t-91.5 16.5h-117v-275h129q79 -1 117 11.5t56 39t39 91.5h32zM173 836h42
l106 -81l106 81h40l-111 -138h-71z" />
    <glyph glyph-name="ecaron" unicode="&#x11b;" horiz-adv-x="464" 
d="M415 143l19 -14q-31 -66 -73.5 -102.5t-113.5 -36.5q-93 0 -153 65.5t-60 182.5q0 120 59 183.5t152 63.5q83 0 132.5 -57.5t53.5 -161.5h-316q0 -98 45.5 -149.5t110.5 -51.5q55 0 84.5 19.5t59.5 58.5zM114 303h223q-2 60 -29.5 101t-77.5 41q-104 0 -116 -142z
M101 678h39l102 -98l103 98h38l-108 -153h-66z" />
    <glyph glyph-name="Gcircumflex" unicode="&#x11c;" horiz-adv-x="720" 
d="M685 310v-32q-42 0 -55 -14.5t-13 -61.5v-145q-60 -35 -115 -51.5t-132 -16.5q-157 0 -238.5 87.5t-81.5 249.5t90.5 252.5t235.5 90.5q48 0 84.5 -9t56.5 -18t28 -9q3 0 6 1t5 1.5t4.5 3l4 4t4 5.5t3.5 6t4.5 7.5t4.5 7.5h29v-229h-34q-32 186 -199 186q-105 0 -164 -77
t-59 -211q0 -150 60.5 -227t169.5 -77q75 0 142 50v108q0 54 -16 70t-72 16v32h247zM523 698h-40l-107 81l-105 -81h-42l112 138h72z" />
    <glyph glyph-name="gcircumflex" unicode="&#x11d;" horiz-adv-x="484" 
d="M128 184v2q-77 45 -77 136q0 74 50.5 118.5t130.5 44.5q29 0 57 -6.5t41 -12.5l13 -6l129 7v-54l-94 3v-5q36 -51 36 -103q0 -69 -49 -110.5t-128 -41.5q-43 0 -86 15q-8 -12 -17 -33.5t-9 -33.5q0 -23 25 -31.5t93 -8.5q46 0 72.5 -1.5t59 -7.5t49.5 -18.5t29 -35
t12 -56.5q0 -63 -43.5 -105.5t-102.5 -58.5t-128 -16q-91 0 -130.5 31.5t-39.5 78.5q0 41 81 119v4q-56 28 -56 72q0 51 82 114zM225 449q-40 0 -63 -31t-23 -92q0 -65 25.5 -100t73.5 -35q87 0 87 123q0 62 -26.5 98.5t-73.5 36.5zM127 -10q-28 -49 -28 -81q0 -87 150 -87
q82 0 123.5 29t41.5 66q0 24 -15 39.5t-43.5 21.5t-50.5 8t-56 2h-9q-34 0 -60 0.5t-37 1t-16 0.5zM383 521h-38l-103 98l-102 -98h-39l108 153h66z" />
    <glyph glyph-name="Gbreve" unicode="&#x11e;" horiz-adv-x="720" 
d="M685 310v-32q-42 0 -55 -14.5t-13 -61.5v-145q-60 -35 -115 -51.5t-132 -16.5q-157 0 -238.5 87.5t-81.5 249.5t90.5 252.5t235.5 90.5q48 0 84.5 -9t56.5 -18t28 -9q3 0 6 1t5 1.5t4.5 3l4 4t4 5.5t3.5 6t4.5 7.5t4.5 7.5h29v-229h-34q-32 186 -199 186q-105 0 -164 -77
t-59 -211q0 -150 60.5 -227t169.5 -77q75 0 142 50v108q0 54 -16 70t-72 16v32h247zM495 865h29q-8 -79 -43.5 -116t-104.5 -37q-142 0 -148 153h30q14 -52 40 -70.5t78 -18.5q51 0 76 18t43 71z" />
    <glyph glyph-name="gbreve" unicode="&#x11f;" horiz-adv-x="484" 
d="M128 184v2q-77 45 -77 136q0 74 50.5 118.5t130.5 44.5q29 0 57 -6.5t41 -12.5l13 -6l129 7v-54l-94 3v-5q36 -51 36 -103q0 -69 -49 -110.5t-128 -41.5q-43 0 -86 15q-8 -12 -17 -33.5t-9 -33.5q0 -23 25 -31.5t93 -8.5q46 0 72.5 -1.5t59 -7.5t49.5 -18.5t29 -35
t12 -56.5q0 -63 -43.5 -105.5t-102.5 -58.5t-128 -16q-91 0 -130.5 31.5t-39.5 78.5q0 41 81 119v4q-56 28 -56 72q0 51 82 114zM225 449q-40 0 -63 -31t-23 -92q0 -65 25.5 -100t73.5 -35q87 0 87 123q0 62 -26.5 98.5t-73.5 36.5zM127 -10q-28 -49 -28 -81q0 -87 150 -87
q82 0 123.5 29t41.5 66q0 24 -15 39.5t-43.5 21.5t-50.5 8t-56 2h-9q-34 0 -60 0.5t-37 1t-16 0.5zM358 683h30q-8 -80 -42.5 -117t-103.5 -37q-141 0 -147 154h30q14 -55 39 -73t78 -18q52 0 75 17.5t41 73.5z" />
    <glyph glyph-name="Gdotaccent" unicode="&#x120;" horiz-adv-x="720" 
d="M685 310v-32q-42 0 -55 -14.5t-13 -61.5v-145q-60 -35 -115 -51.5t-132 -16.5q-157 0 -238.5 87.5t-81.5 249.5t90.5 252.5t235.5 90.5q48 0 84.5 -9t56.5 -18t28 -9q3 0 6 1t5 1.5t4.5 3l4 4t4 5.5t3.5 6t4.5 7.5t4.5 7.5h29v-229h-34q-32 186 -199 186q-105 0 -164 -77
t-59 -211q0 -150 60.5 -227t169.5 -77q75 0 142 50v108q0 54 -16 70t-72 16v32h247zM439 764q0 -26 -16.5 -42.5t-45.5 -16.5q-31 0 -47.5 16t-16.5 43q0 26 17.5 42t46.5 16t45.5 -16t16.5 -42z" />
    <glyph glyph-name="gdotaccent" unicode="&#x121;" horiz-adv-x="484" 
d="M128 184v2q-77 45 -77 136q0 74 50.5 118.5t130.5 44.5q29 0 57 -6.5t41 -12.5l13 -6l129 7v-54l-94 3v-5q36 -51 36 -103q0 -69 -49 -110.5t-128 -41.5q-43 0 -86 15q-8 -12 -17 -33.5t-9 -33.5q0 -23 25 -31.5t93 -8.5q46 0 72.5 -1.5t59 -7.5t49.5 -18.5t29 -35
t12 -56.5q0 -63 -43.5 -105.5t-102.5 -58.5t-128 -16q-91 0 -130.5 31.5t-39.5 78.5q0 41 81 119v4q-56 28 -56 72q0 51 82 114zM225 449q-40 0 -63 -31t-23 -92q0 -65 25.5 -100t73.5 -35q87 0 87 123q0 62 -26.5 98.5t-73.5 36.5zM127 -10q-28 -49 -28 -81q0 -87 150 -87
q82 0 123.5 29t41.5 66q0 24 -15 39.5t-43.5 21.5t-50.5 8t-56 2h-9q-34 0 -60 0.5t-37 1t-16 0.5zM298 606q0 -25 -14.5 -40t-40.5 -15q-27 0 -42 15t-15 40t15.5 39.5t41.5 14.5t40.5 -15t14.5 -39z" />
    <glyph glyph-name="Gcommaaccent" unicode="&#x122;" horiz-adv-x="720" 
d="M685 310v-32q-42 0 -55 -14.5t-13 -61.5v-145q-60 -35 -115 -51.5t-132 -16.5q-157 0 -238.5 87.5t-81.5 249.5t90.5 252.5t235.5 90.5q48 0 84.5 -9t56.5 -18t28 -9q3 0 6 1t5 1.5t4.5 3l4 4t4 5.5t3.5 6t4.5 7.5t4.5 7.5h29v-229h-34q-32 186 -199 186q-105 0 -164 -77
t-59 -211q0 -150 60.5 -227t169.5 -77q75 0 142 50v108q0 54 -16 70t-72 16v32h247zM310 -277l-10 25q78 28 78 96q-16 -6 -31 -6q-22 0 -36 14t-14 38q0 25 15.5 41t45.5 16q70 0 70 -85q0 -34 -11.5 -60t-33 -41.5t-36.5 -23t-37 -14.5z" />
    <glyph glyph-name="gcommaaccent" unicode="&#x123;" horiz-adv-x="484" 
d="M128 184v2q-77 45 -77 136q0 74 50.5 118.5t130.5 44.5q29 0 57 -6.5t41 -12.5l13 -6l129 7v-54l-94 3v-5q36 -51 36 -103q0 -69 -49 -110.5t-128 -41.5q-43 0 -86 15q-8 -12 -17 -33.5t-9 -33.5q0 -23 25 -31.5t93 -8.5q46 0 72.5 -1.5t59 -7.5t49.5 -18.5t29 -35
t12 -56.5q0 -63 -43.5 -105.5t-102.5 -58.5t-128 -16q-91 0 -130.5 31.5t-39.5 78.5q0 41 81 119v4q-56 28 -56 72q0 51 82 114zM225 449q-40 0 -63 -31t-23 -92q0 -65 25.5 -100t73.5 -35q87 0 87 123q0 62 -26.5 98.5t-73.5 36.5zM127 -10q-28 -49 -28 -81q0 -87 150 -87
q82 0 123.5 29t41.5 66q0 24 -15 39.5t-43.5 21.5t-50.5 8t-56 2h-9q-34 0 -60 0.5t-37 1t-16 0.5zM290 748l10 -25q-78 -28 -78 -96q17 6 31 6q22 0 36 -14t14 -38q0 -25 -15.5 -41t-45.5 -16q-70 0 -70 85q0 34 11.5 60t33 41.5t36.5 23t37 14.5z" />
    <glyph glyph-name="Hcircumflex" unicode="&#x124;" horiz-adv-x="777" 
d="M225 525v-168h328v168q0 63 -16 82.5t-81 19.5v30h286v-30q-36 0 -55.5 -4t-29 -18t-11.5 -29.5t-2 -50.5v-394q0 -67 15.5 -84t82.5 -17v-30h-286v30q66 0 81.5 17t15.5 84v187h-328v-187q0 -67 16 -84t82 -17v-30h-287v30q66 0 81.5 16.5t15.5 84.5v394q0 63 -16 82.5
t-81 19.5v30h287v-30q-67 0 -82.5 -19t-15.5 -83zM537 698h-40l-107 81l-105 -81h-42l112 138h72z" />
    <glyph glyph-name="hcircumflex" unicode="&#x125;" horiz-adv-x="577" 
d="M183 359v-262q0 -42 12.5 -55t61.5 -13v-29h-227v29q41 0 55.5 12t14.5 52v512q0 24 -12.5 32t-36.5 8l-29 -2v28l134 35h27v-303h3q88 82 162 82q134 0 134 -185v-199q0 -42 14 -57t60 -15v-29h-230v29q48 0 60.5 14t12.5 54v173q0 73 -18.5 112t-73.5 39
q-56 0 -124 -62zM418 730h-40l-107 81l-105 -81h-42l112 138h72z" />
    <glyph glyph-name="Hbar" unicode="&#x126;" horiz-adv-x="788" 
d="M230 525v-30h328v30q0 63 -16 82.5t-81 19.5v30h287v-30q-24 0 -40.5 -1.5t-27.5 -7.5t-17 -12t-9 -20t-3.5 -25.5t-0.5 -35.5v-30h97v-39h-97v-325q0 -67 15.5 -84t82.5 -17v-30h-287v30q66 0 81.5 17t15.5 84v183h-328v-183q0 -67 16 -84t82 -17v-30h-287v30
q66 0 81.5 16.5t15.5 84.5v325h-97v39h97v30q0 63 -16 82.5t-81 19.5v30h287v-30q-67 0 -82.5 -19t-15.5 -83zM230 353h328v103h-328v-103z" />
    <glyph glyph-name="hbar" unicode="&#x127;" horiz-adv-x="579" 
d="M185 351v-259q0 -39 14 -51t60 -12v-29h-227v29q41 0 55.5 12t14.5 52v440h-78v41h78v32q0 24 -12.5 32t-36.5 8l-29 -2v28l134 34h27v-132h162v-41h-162v-138h3q87 82 162 82q37 0 63.5 -14t39.5 -33.5t20.5 -50.5t9 -53t1.5 -54v-171q0 -42 14 -57t60 -15v-29h-230v29
q48 0 60.5 14t12.5 54v164q0 35 -3 59t-12.5 47t-28.5 34t-48 11q-58 0 -124 -61z" />
    <glyph glyph-name="Itilde" unicode="&#x128;" horiz-adv-x="357" 
d="M133 131v394q0 34 -2 49.5t-12 30t-29.5 18.5t-55.5 4v30h288v-30q-67 0 -82.5 -19t-15.5 -83v-394q0 -66 16 -83.5t82 -17.5v-30h-288v30q66 0 82.5 17.5t16.5 83.5zM321 816h26q-22 -102 -106 -102q-30 0 -72 18.5t-65 18.5q-44 0 -57 -39h-26q9 47 36.5 73t65.5 26
q32 0 74.5 -18t64.5 -18q45 0 59 41z" />
    <glyph glyph-name="itilde" unicode="&#x129;" horiz-adv-x="285" 
d="M250 642h27q-10 -56 -33.5 -81t-61.5 -25q-26 0 -62.5 21.5t-57.5 21.5q-38 0 -50 -46h-27q8 49 32.5 77t58.5 28q27 0 64.5 -21.5t57.5 -21.5q38 0 52 47zM257 28v-28h-225v28q48 0 59 13.5t11 59.5v279q0 30 -10 38.5t-34 8.5l-25 -2v29l126 28h26v-381q0 -46 12 -59.5
t60 -13.5z" />
    <glyph glyph-name="Imacron" unicode="&#x12a;" horiz-adv-x="357" 
d="M133 131v394q0 34 -2 49.5t-12 30t-29.5 18.5t-55.5 4v30h288v-30q-67 0 -82.5 -19t-15.5 -83v-394q0 -66 16 -83.5t82 -17.5v-30h-288v30q66 0 82.5 17.5t16.5 83.5zM326 726h-294v53h294v-53z" />
    <glyph glyph-name="imacron" unicode="&#x12b;" horiz-adv-x="285" 
d="M257 28v-28h-225v28q48 0 59 13.5t11 59.5v279q0 30 -10 38.5t-34 8.5l-25 -2v29l126 28h26v-381q0 -46 12 -59.5t60 -13.5zM255 555h-259v55h259v-55z" />
    <glyph glyph-name="Ibreve" unicode="&#x12c;" horiz-adv-x="357" 
d="M133 131v394q0 34 -2 49.5t-12 30t-29.5 18.5t-55.5 4v30h288v-30q-67 0 -82.5 -19t-15.5 -83v-394q0 -66 16 -83.5t82 -17.5v-30h-288v30q66 0 82.5 17.5t16.5 83.5zM298 865h29q-8 -79 -43.5 -116t-104.5 -37q-142 0 -148 153h30q14 -52 40 -70.5t78 -18.5q51 0 76 18
t43 71z" />
    <glyph glyph-name="ibreve" unicode="&#x12d;" horiz-adv-x="285" 
d="M226 683h30q-7 -79 -39.5 -116.5t-92.5 -37.5q-125 0 -131 154h30q11 -55 34.5 -75t66.5 -20t65 19.5t37 75.5zM257 28v-28h-225v28q48 0 59 13.5t11 59.5v279q0 30 -10 38.5t-34 8.5l-25 -2v29l126 28h26v-381q0 -46 12 -59.5t60 -13.5z" />
    <glyph glyph-name="Iogonek" unicode="&#x12e;" horiz-adv-x="357" 
d="M288 -134l14 -17q-33 -34 -59.5 -49.5t-67.5 -15.5q-40 0 -64.5 22.5t-24.5 59.5q0 27 18.5 55t34.5 42t44 35v2h-149v30q67 0 83 17t16 84v394q0 34 -2 49.5t-12 30t-29.5 18.5t-55.5 4v30h288v-30q-67 0 -82.5 -19t-15.5 -83v-394q0 -65 16.5 -83t81.5 -18v-30h-93
q-23 -17 -36.5 -29t-26.5 -34.5t-13 -46.5q0 -55 51 -55q43 0 84 31z" />
    <glyph glyph-name="iogonek" unicode="&#x12f;" horiz-adv-x="285" 
d="M245 -134l14 -17q-34 -34 -60 -49.5t-66 -15.5q-41 0 -65.5 22.5t-24.5 59.5q0 26 18.5 54t35 42.5t43.5 34.5v3h-108v28q48 0 59 13.5t11 59.5v279q0 30 -10 38.5t-34 8.5l-25 -2v29l126 28h26v-381q0 -46 12 -59.5t60 -13.5v-28h-70q-23 -16 -37 -29t-26.5 -35
t-12.5 -46q0 -55 50 -55q27 0 44 6.5t40 24.5zM145 693q25 0 41 -16.5t16 -39.5q0 -24 -15.5 -40.5t-41.5 -16.5q-25 0 -41 16.5t-16 40.5q0 23 16 39.5t41 16.5z" />
    <glyph glyph-name="Idotaccent" unicode="&#x130;" horiz-adv-x="357" 
d="M133 131v394q0 34 -2 49.5t-12 30t-29.5 18.5t-55.5 4v30h288v-30q-67 0 -82.5 -19t-15.5 -83v-394q0 -66 16 -83.5t82 -17.5v-30h-288v30q66 0 82.5 17.5t16.5 83.5zM242 764q0 -26 -16.5 -42.5t-45.5 -16.5q-31 0 -47.5 16t-16.5 43q0 26 17.5 42t46.5 16t45.5 -16
t16.5 -42z" />
    <glyph glyph-name="dotlessi" unicode="&#x131;" horiz-adv-x="285" 
d="M257 28v-28h-225v28q48 0 59 13.5t11 59.5v279q0 30 -10 38.5t-34 8.5l-25 -2v29l126 28h26v-381q0 -46 12 -59.5t60 -13.5z" />
    <glyph glyph-name="IJ" unicode="&#x132;" horiz-adv-x="753" 
d="M133 131v394q0 34 -2 49.5t-12 30t-29.5 18.5t-55.5 4v30h288v-30q-67 0 -82.5 -19t-15.5 -83v-394q0 -66 16 -83.5t82 -17.5v-30h-288v30q66 0 82.5 17.5t16.5 83.5zM548 123v402q0 64 -15.5 83t-82.5 19v30h282v-30q-60 0 -76 -20t-16 -82v-373q0 -92 -42.5 -128
t-121.5 -36q-52 0 -85.5 20t-33.5 59q0 23 11.5 36t32.5 13q20 0 34 -14.5t21 -32t18.5 -32t26.5 -14.5q28 0 37.5 22.5t9.5 77.5z" />
    <glyph glyph-name="ij" unicode="&#x133;" horiz-adv-x="548" 
d="M145 693q25 0 41 -16.5t16 -39.5q0 -24 -15.5 -40.5t-41.5 -16.5q-25 0 -41 16.5t-16 40.5q0 23 16 39.5t41 16.5zM257 28v-28h-225v28q48 0 59 13.5t11 59.5v279q0 30 -10 38.5t-34 8.5l-25 -2v29l126 28h26v-381q0 -46 12 -59.5t60 -13.5zM468 482v-484
q0 -119 -42 -176t-130 -57q-49 0 -77.5 19.5t-28.5 52.5q0 19 12 30.5t32 11.5q24 0 49.5 -35t48.5 -35q34 0 43.5 34.5t9.5 124.5v405q0 33 -8.5 43.5t-35.5 10.5l-30 -3v30l130 28h27zM424 693q26 0 42.5 -16.5t16.5 -39.5q0 -24 -16.5 -40.5t-42.5 -16.5
q-25 0 -41.5 16.5t-16.5 40.5q0 23 16 39.5t42 16.5z" />
    <glyph glyph-name="Jcircumflex" unicode="&#x134;" horiz-adv-x="396" 
d="M191 123v402q0 64 -15.5 83t-82.5 19v30h282v-30q-60 0 -76 -20t-16 -82v-373q0 -92 -42.5 -128t-121.5 -36q-52 0 -85.5 20t-33.5 59q0 23 11.5 36t32.5 13q20 0 34 -14.5t21 -32t18.5 -32t26.5 -14.5q28 0 37.5 22.5t9.5 77.5zM385 698h-40l-107 81l-105 -81h-42
l112 138h72z" />
    <glyph glyph-name="jcircumflex" unicode="&#x135;" horiz-adv-x="263" 
d="M183 482v-484q0 -119 -42 -176t-130 -57q-49 0 -77.5 19.5t-28.5 52.5q0 19 12 30.5t32 11.5q24 0 49.5 -35t48.5 -35q34 0 43.5 34.5t9.5 124.5v405q0 33 -8.5 43.5t-35.5 10.5l-30 -3v30l130 28h27zM270 521h-38l-103 98l-102 -98h-39l108 153h66z" />
    <glyph glyph-name="Kcommaaccent" unicode="&#x136;" horiz-adv-x="702" 
d="M133 131v394q0 34 -2 49.5t-12 30t-29.5 18.5t-55.5 4v30h288v-30q-67 0 -82.5 -19t-15.5 -83v-188h5l162 158q39 37 55 58.5t16 42.5q0 31 -38 31h-16v30h245v-30q-40 -2 -63.5 -15t-67.5 -54l-217 -203l287 -282q26 -24 47.5 -33.5t56.5 -9.5v-30h-289v30h20
q39 0 39 20q0 31 -128 156q-3 4 -5.5 6t-5.5 5l-6 6l-88 88h-9v-180q0 -65 16.5 -83t81.5 -18v-30h-288v30q67 0 83 17t16 84zM303 -277l-10 25q78 28 78 96q-17 -6 -31 -6q-22 0 -36 14t-14 38q0 25 15.5 41t45.5 16q70 0 70 -85q0 -34 -11.5 -60t-33 -41.5t-36.5 -23
t-37 -14.5z" />
    <glyph glyph-name="kcommaaccent" unicode="&#x137;" horiz-adv-x="542" 
d="M539 0h-221v29q39 0 39 12q0 13 -11 24l-157 178h-6v-152q0 -39 13.5 -50.5t60.5 -11.5v-29h-227v29q45 0 57.5 12t12.5 54v500q0 32 -7.5 41.5t-32.5 9.5l-34 -2v27l130 35h27v-441h6l129 128q18 18 18 32q0 18 -49 18v30h216v-30q-46 0 -75 -18.5t-121 -98.5l-50 -41
l176 -198q34 -39 53 -48.5t53 -9.5v-29zM223 -277l-10 25q78 28 78 96q-17 -6 -31 -6q-22 0 -36 14t-14 38q0 25 15.5 41t45.5 16q70 0 70 -85q0 -34 -11.5 -60t-33 -41.5t-36.5 -23t-37 -14.5z" />
    <glyph glyph-name="kgreenlandic" unicode="&#x138;" horiz-adv-x="542" 
d="M541 0h-221v29q39 0 39 12q0 13 -11 24l-157 166h-6v-140q0 -39 13.5 -50.5t60.5 -11.5v-29h-227v29q45 0 57.5 12t12.5 54v279q0 31 -7.5 40.5t-32.5 9.5l-34 -2v28l130 29h27v-226h6l139 140q18 18 18 32q0 18 -49 18v30h206v-30q-11 0 -19.5 -1t-18 -4t-16.5 -5.5
t-18 -10.5l-17.5 -13t-21 -17.5t-23 -20.5l-29 -26.5l-33.5 -30.5l-48 -42l174 -185q36 -39 54.5 -48.5t51.5 -9.5v-29z" />
    <glyph glyph-name="Lacute" unicode="&#x139;" horiz-adv-x="585" 
d="M568 195l-30 -195h-496v30q59 0 75 17t16 76v407q0 60 -16.5 78.5t-74.5 18.5v30h281v-30q-60 0 -79 -19.5t-19 -78.5v-434q0 -32 15.5 -42.5t60.5 -10.5h46q50 0 80 6.5t50.5 28t31 44.5t27.5 74h32zM124 698l105 128h100v-21l-159 -107h-46z" />
    <glyph glyph-name="lacute" unicode="&#x13a;" horiz-adv-x="283" 
d="M260 29v-29h-230v29q47 0 58.5 13.5t11.5 58.5v502q0 28 -10 35.5t-32 7.5l-32 -2v27l132 35h25v-605q0 -46 12.5 -59t64.5 -13zM57 734l105 128h100v-21l-159 -107h-46z" />
    <glyph glyph-name="Lcommaaccent" unicode="&#x13b;" horiz-adv-x="585" 
d="M568 195l-30 -195h-496v30q59 0 75 17t16 76v407q0 60 -16.5 78.5t-74.5 18.5v30h281v-30q-60 0 -79 -19.5t-19 -78.5v-434q0 -32 15.5 -42.5t60.5 -10.5h46q50 0 80 6.5t50.5 28t31 44.5t27.5 74h32zM241 -277l-10 25q78 28 78 96q-17 -6 -31 -6q-22 0 -36 14t-14 38
q0 25 15.5 41t45.5 16q70 0 70 -85q0 -34 -11.5 -60t-33 -41.5t-36.5 -23t-37 -14.5z" />
    <glyph glyph-name="lcommaaccent" unicode="&#x13c;" horiz-adv-x="283" 
d="M260 29v-29h-230v29q47 0 58.5 13.5t11.5 58.5v502q0 28 -10 35.5t-32 7.5l-32 -2v27l132 35h25v-605q0 -46 12.5 -59t64.5 -13zM90 -277l-10 25q78 28 78 96q-17 -6 -31 -6q-22 0 -36 14t-14 38q0 25 15.5 41t45.5 16q70 0 70 -85q0 -34 -11.5 -60t-33 -41.5t-36.5 -23
t-37 -14.5z" />
    <glyph glyph-name="Lcaron" unicode="&#x13d;" horiz-adv-x="585" 
d="M568 195l-30 -195h-496v30q59 0 75 17t16 76v407q0 60 -16.5 78.5t-74.5 18.5v30h281v-30q-60 0 -79 -19.5t-19 -78.5v-434q0 -32 15.5 -42.5t60.5 -10.5h46q50 0 80 6.5t50.5 28t31 44.5t27.5 74h32zM415 463l12 194h82v-18q-6 -88 -64 -180z" />
    <glyph glyph-name="lcaron" unicode="&#x13e;" horiz-adv-x="366" 
d="M260 29v-29h-230v29q47 0 58.5 13.5t11.5 58.5v502q0 28 -10 35.5t-32 7.5l-32 -2v27l132 35h25v-605q0 -46 12.5 -59t64.5 -13zM252 503l12 194h82v-18q-6 -88 -64 -180z" />
    <glyph glyph-name="Ldot" unicode="&#x13f;" horiz-adv-x="585" 
d="M568 195l-30 -195h-496v30q59 0 75 17t16 76v407q0 60 -16.5 78.5t-74.5 18.5v30h281v-30q-60 0 -79 -19.5t-19 -78.5v-434q0 -32 15.5 -42.5t60.5 -10.5h46q50 0 80 6.5t50.5 28t31 44.5t27.5 74h32zM542 359q0 -26 -16.5 -42.5t-45.5 -16.5q-31 0 -47.5 16t-16.5 43
q0 26 17.5 42t46.5 16t45.5 -16t16.5 -42z" />
    <glyph glyph-name="ldot" unicode="&#x140;" horiz-adv-x="361" 
d="M260 29v-29h-230v29q47 0 58.5 13.5t11.5 58.5v502q0 28 -10 35.5t-32 7.5l-32 -2v27l132 35h25v-605q0 -46 12.5 -59t64.5 -13zM381 355q0 -24 -16 -40.5t-44 -16.5t-43 16t-15 42t16 43.5t43 17.5t43 -18t16 -44z" />
    <glyph glyph-name="Lslash" unicode="&#x141;" horiz-adv-x="590" 
d="M407 445l-177 -107v-243q0 -32 15.5 -42.5t60.5 -10.5h47q50 0 80 6.5t50.5 28t30.5 44.5t27 74h32l-30 -195h-495v30q58 0 74 17t16 76v159l-89 -53l-18 33l107 64v204q0 60 -16 78.5t-74 18.5v30h281v-30q-61 0 -80 -19.5t-19 -78.5v-148l159 95z" />
    <glyph glyph-name="lslash" unicode="&#x142;" horiz-adv-x="290" 
d="M30 267l-22 32l97 70v234q0 28 -10 35.5t-32 7.5l-32 -2v27l132 35h25v-276l70 49l23 -31l-93 -67v-280q0 -46 12.5 -59t64.5 -13v-29h-230v29q47 0 58.5 13.5t11.5 58.5v219z" />
    <glyph glyph-name="Nacute" unicode="&#x143;" horiz-adv-x="742" 
d="M715 657v-30q-44 0 -65 -20q-26 -23 -26 -114v-501h-33l-414 535h-5v-378q0 -75 17 -97t74 -22v-30h-234v30q59 0 76.5 21.5t17.5 97.5v427q-24 31 -42.5 41t-51.5 10v30h170l370 -483h5v324q0 82 -19 104q-21 25 -76 25v30h236zM283 698l105 128h100v-21l-159 -107h-46z
" />
    <glyph glyph-name="nacute" unicode="&#x144;" horiz-adv-x="576" 
d="M481 307v-206q0 -44 13 -58.5t61 -14.5v-28h-231v28q50 0 62 14t12 59v181q0 81 -25.5 110t-66.5 29q-25 0 -50.5 -12t-36.5 -21t-34 -30v-257q0 -45 12.5 -59t63.5 -14v-28h-229v28q48 0 59 14t11 59v281q0 26 -10 35t-32 9l-27 -2v29l127 29h23l-1 -81h4
q49 43 83.5 63.5t77.5 20.5q134 0 134 -178zM247 521l70 153h93v-18l-124 -135h-39z" />
    <glyph glyph-name="Ncommaaccent" unicode="&#x145;" horiz-adv-x="742" 
d="M715 657v-30q-44 0 -65 -20q-26 -23 -26 -114v-501h-33l-414 535h-5v-378q0 -75 17 -97t74 -22v-30h-234v30q59 0 76.5 21.5t17.5 97.5v427q-24 31 -42.5 41t-51.5 10v30h170l370 -483h5v324q0 82 -19 104q-21 25 -76 25v30h236zM310 -277l-10 25q78 28 78 96
q-16 -6 -31 -6q-22 0 -36 14t-14 38q0 25 15.5 41t45.5 16q70 0 70 -85q0 -34 -11.5 -60t-33 -41.5t-36.5 -23t-37 -14.5z" />
    <glyph glyph-name="ncommaaccent" unicode="&#x146;" horiz-adv-x="576" 
d="M481 307v-206q0 -44 13 -58.5t61 -14.5v-28h-231v28q50 0 62 14t12 59v181q0 81 -25.5 110t-66.5 29q-25 0 -50.5 -12t-36.5 -21t-34 -30v-257q0 -45 12.5 -59t63.5 -14v-28h-229v28q48 0 59 14t11 59v281q0 26 -10 35t-32 9l-27 -2v29l127 29h23l-1 -81h4
q49 43 83.5 63.5t77.5 20.5q134 0 134 -178zM231 -277l-10 25q78 28 78 96q-16 -6 -31 -6q-22 0 -36 14t-14 38q0 25 15.5 41t45.5 16q70 0 70 -85q0 -34 -11.5 -60t-33 -41.5t-36.5 -23t-37 -14.5z" />
    <glyph glyph-name="Ncaron" unicode="&#x147;" horiz-adv-x="742" 
d="M715 657v-30q-44 0 -65 -20q-26 -23 -26 -114v-501h-33l-414 535h-5v-378q0 -75 17 -97t74 -22v-30h-234v30q59 0 76.5 21.5t17.5 97.5v427q-24 31 -42.5 41t-51.5 10v30h170l370 -483h5v324q0 82 -19 104q-21 25 -76 25v30h236zM232 836h42l106 -81l106 81h40l-111 -138
h-71z" />
    <glyph glyph-name="ncaron" unicode="&#x148;" horiz-adv-x="576" 
d="M481 307v-206q0 -44 13 -58.5t61 -14.5v-28h-231v28q50 0 62 14t12 59v181q0 81 -25.5 110t-66.5 29q-25 0 -50.5 -12t-36.5 -21t-34 -30v-257q0 -45 12.5 -59t63.5 -14v-28h-229v28q48 0 59 14t11 59v281q0 26 -10 35t-32 9l-27 -2v29l127 29h23l-1 -81h4
q49 43 83.5 63.5t77.5 20.5q134 0 134 -178zM160 678h39l102 -98l103 98h38l-108 -153h-66z" />
    <glyph glyph-name="napostrophe" unicode="&#x149;" horiz-adv-x="576" 
d="M481 307v-206q0 -44 13 -58.5t61 -14.5v-28h-231v28q50 0 62 14t12 59v181q0 81 -25.5 110t-66.5 29q-25 0 -50.5 -12t-36.5 -21t-34 -30v-257q0 -45 12.5 -59t63.5 -14v-28h-229v28q48 0 59 14t11 59v281q0 26 -10 35t-32 9l-27 -2v29l127 29h23l-1 -81h4
q49 43 83.5 63.5t77.5 20.5q134 0 134 -178zM-135 459l-12 25q24 10 39 20.5t29.5 36t14.5 61.5q-14 -6 -31 -6q-28 0 -41.5 15t-13.5 39q0 26 16.5 43t45.5 17q37 0 56.5 -23.5t19.5 -64.5q0 -39 -11.5 -68.5t-36 -49t-37 -26.5t-38.5 -19z" />
    <glyph glyph-name="Eng" unicode="&#x14a;" horiz-adv-x="742" 
d="M715 657v-30q-26 0 -39 -3t-27 -15.5t-19.5 -40.5t-5.5 -75v-508q0 -121 -41 -170.5t-132 -49.5q-50 0 -80.5 18.5t-30.5 53.5q0 20 13.5 33t34.5 13q18 0 32 -11t21 -24t19 -24t27 -11q87 0 87 150v37l-373 496l-29 31v-378q0 -75 17 -97t74 -22v-30h-234v30
q59 0 76.5 21.5t17.5 97.5v427q-24 31 -42.5 41t-51.5 10v30h170l347 -462l28 -30v333q0 58 -10 86t-28 35.5t-57 7.5v30h236z" />
    <glyph glyph-name="eng" unicode="&#x14b;" horiz-adv-x="559" 
d="M398 -32v314q0 81 -25.5 110t-66.5 29q-25 0 -50.5 -12t-36.5 -21t-34 -30v-257q0 -45 12.5 -59t63.5 -14v-28h-229v28q48 0 59 14t11 59v281q0 26 -10 35t-32 9l-27 -2v29l127 29h23l-1 -81h4q49 43 83.5 63.5t77.5 20.5q134 0 134 -178v-309q0 -119 -42 -176t-130 -57
q-49 0 -77.5 19.5t-28.5 52.5q0 19 12 30.5t32 11.5q24 0 49.5 -35t48.5 -35q34 0 43.5 34.5t9.5 124.5z" />
    <glyph glyph-name="Omacron" unicode="&#x14c;" horiz-adv-x="737" 
d="M687 338q0 -158 -86 -254t-232 -96q-149 0 -234 91t-85 250q0 154 86 247t233 93q148 0 233 -90.5t85 -240.5zM582 335q0 134 -59 213t-157 79q-97 0 -154 -78t-57 -214q0 -144 54.5 -224.5t160.5 -80.5q212 0 212 305zM515 726h-294v53h294v-53z" />
    <glyph glyph-name="omacron" unicode="&#x14d;" horiz-adv-x="514" 
d="M258 485q103 0 162.5 -64t59.5 -175q0 -123 -61 -189.5t-161 -66.5q-106 0 -165 65.5t-59 186.5q0 109 61.5 176t162.5 67zM254 447q-59 0 -93 -49t-34 -143q0 -227 135 -225q65 0 95.5 47t30.5 164q0 95 -34.5 150.5t-99.5 55.5zM406 555h-290v55h290v-55z" />
    <glyph glyph-name="Obreve" unicode="&#x14e;" horiz-adv-x="737" 
d="M687 338q0 -158 -86 -254t-232 -96q-149 0 -234 91t-85 250q0 154 86 247t233 93q148 0 233 -90.5t85 -240.5zM582 335q0 134 -59 213t-157 79q-97 0 -154 -78t-57 -214q0 -144 54.5 -224.5t160.5 -80.5q212 0 212 305zM487 865h29q-8 -79 -43.5 -116t-104.5 -37
q-142 0 -148 153h30q14 -52 40 -70.5t78 -18.5q51 0 76 18t43 71z" />
    <glyph glyph-name="obreve" unicode="&#x14f;" horiz-adv-x="514" 
d="M258 485q103 0 162.5 -64t59.5 -175q0 -123 -61 -189.5t-161 -66.5q-106 0 -165 65.5t-59 186.5q0 109 61.5 176t162.5 67zM254 447q-59 0 -93 -49t-34 -143q0 -227 135 -225q65 0 95.5 47t30.5 164q0 95 -34.5 150.5t-99.5 55.5zM377 683h30q-8 -80 -42.5 -117
t-103.5 -37q-141 0 -147 154h30q14 -55 39 -73t78 -18q52 0 75 17.5t41 73.5z" />
    <glyph glyph-name="Ohungarumlaut" unicode="&#x150;" horiz-adv-x="737" 
d="M687 338q0 -158 -86 -254t-232 -96q-149 0 -234 91t-85 250q0 154 86 247t233 93q148 0 233 -90.5t85 -240.5zM582 335q0 134 -59 213t-157 79q-97 0 -154 -78t-57 -214q0 -144 54.5 -224.5t160.5 -80.5q212 0 212 305zM265 698l83 128h92v-19l-136 -109h-39zM408 698
l83 128h93v-19l-138 -109h-38z" />
    <glyph glyph-name="ohungarumlaut" unicode="&#x151;" horiz-adv-x="514" 
d="M258 485q103 0 162.5 -64t59.5 -175q0 -123 -61 -189.5t-161 -66.5q-106 0 -165 65.5t-59 186.5q0 109 61.5 176t162.5 67zM254 447q-59 0 -93 -49t-34 -143q0 -227 135 -225q65 0 95.5 47t30.5 164q0 95 -34.5 150.5t-99.5 55.5zM166 521l65 153h92v-18l-119 -135h-38z
M299 521l65 153h92v-18l-119 -135h-38z" />
    <glyph glyph-name="OE" unicode="&#x152;" horiz-adv-x="945" 
d="M917 186l-29 -186h-395q-67 -12 -131 -12q-141 0 -226.5 90t-85.5 251q0 153 86 246.5t231 93.5q64 0 122 -12h391l6 -164h-31q-12 78 -45.5 98.5t-141.5 20.5h-114v-254h106q69 0 90.5 19.5t21.5 80.5h33v-232h-33q0 60 -20.5 76.5t-91.5 16.5h-106v-275h119
q61 0 93.5 4.5t56 22.5t35 41.5t27.5 73.5h32zM155 335q0 -46 6 -87.5t21 -82t38.5 -70t61.5 -47.5t87 -18q93 0 93 76v452q0 30 -25 49.5t-71 19.5q-99 0 -155 -82t-56 -210z" />
    <glyph glyph-name="oe" unicode="&#x153;" horiz-adv-x="807" 
d="M757 143l20 -14q-31 -66 -73 -102.5t-111 -36.5q-110 0 -164 90h-3q-30 -41 -75 -65.5t-97 -24.5q-102 0 -161 66t-59 186q0 109 60.5 176t159.5 67q109 0 171 -89h4q57 89 162 89q81 0 130 -57.5t53 -161.5h-309q0 -98 44 -149.5t107 -51.5q54 0 83 19.5t58 58.5z
M251 447q-57 0 -90.5 -49.5t-33.5 -145.5q0 -223 133 -223q61 1 91 49t30 163q0 98 -33 152t-97 54zM464 303h216q-2 60 -29 101t-75 41q-100 0 -112 -142z" />
    <glyph glyph-name="Racute" unicode="&#x154;" horiz-adv-x="659" 
d="M547 493q0 -135 -169 -175v-4q24 -14 57 -57t126 -176q23 -31 44.5 -41t58.5 -10v-30h-165l-179 268q-14 22 -26.5 27.5t-40.5 5.5h-28v-177q0 -62 17 -78t82 -16v-30h-281v30q57 0 73 16t16 78v429q0 44 -16 59t-73 15v30h246q59 0 104 -8t81 -26t54.5 -51t18.5 -79z
M225 615v-275l38 -1q183 8 183 150q0 129 -155 129q-35 0 -66 -3zM216 698l105 128h100v-21l-159 -107h-46z" />
    <glyph glyph-name="racute" unicode="&#x155;" horiz-adv-x="380" 
d="M183 482v-103h3q42 61 68.5 85t60.5 24q58 0 58 -56q0 -27 -13 -40.5t-31 -13.5q-19 0 -40.5 17t-24.5 17q-30 0 -79 -82v-228q0 -46 18 -59.5t76 -13.5v-29h-250v29q48 0 60.5 12.5t12.5 55.5v275q0 17 -0.5 24.5t-4 15.5t-11 11t-20.5 3l-31 -2v28l124 30h24zM143 521
l70 153h93v-18l-124 -135h-39z" />
    <glyph glyph-name="Rcommaaccent" unicode="&#x156;" horiz-adv-x="659" 
d="M547 493q0 -135 -169 -175v-4q24 -14 57 -57t126 -176q23 -31 44.5 -41t58.5 -10v-30h-165l-179 268q-14 22 -26.5 27.5t-40.5 5.5h-28v-177q0 -62 17 -78t82 -16v-30h-281v30q57 0 73 16t16 78v429q0 44 -16 59t-73 15v30h246q59 0 104 -8t81 -26t54.5 -51t18.5 -79z
M225 615v-275l38 -1q183 8 183 150q0 129 -155 129q-35 0 -66 -3zM282 -277l-10 25q78 28 78 96q-17 -6 -31 -6q-22 0 -36 14t-14 38q0 25 15.5 41t45.5 16q70 0 70 -85q0 -34 -11.5 -60t-33 -41.5t-36.5 -23t-37 -14.5z" />
    <glyph glyph-name="rcommaaccent" unicode="&#x157;" horiz-adv-x="380" 
d="M183 482v-103h3q42 61 68.5 85t60.5 24q58 0 58 -56q0 -27 -13 -40.5t-31 -13.5q-19 0 -40.5 17t-24.5 17q-30 0 -79 -82v-228q0 -46 18 -59.5t76 -13.5v-29h-250v29q48 0 60.5 12.5t12.5 55.5v275q0 17 -0.5 24.5t-4 15.5t-11 11t-20.5 3l-31 -2v28l124 30h24zM107 -277
l-10 25q78 28 78 96q-17 -6 -31 -6q-22 0 -36 14t-14 38q0 25 15.5 41t45.5 16q70 0 70 -85q0 -34 -11.5 -60t-33 -41.5t-36.5 -23t-37 -14.5z" />
    <glyph glyph-name="Rcaron" unicode="&#x158;" horiz-adv-x="659" 
d="M547 493q0 -135 -169 -175v-4q24 -14 57 -57t126 -176q23 -31 44.5 -41t58.5 -10v-30h-165l-179 268q-14 22 -26.5 27.5t-40.5 5.5h-28v-177q0 -62 17 -78t82 -16v-30h-281v30q57 0 73 16t16 78v429q0 44 -16 59t-73 15v30h246q59 0 104 -8t81 -26t54.5 -51t18.5 -79z
M225 615v-275l38 -1q183 8 183 150q0 129 -155 129q-35 0 -66 -3zM165 836h42l106 -81l106 81h40l-111 -138h-71z" />
    <glyph glyph-name="rcaron" unicode="&#x159;" horiz-adv-x="380" 
d="M183 482v-103h3q42 61 68.5 85t60.5 24q58 0 58 -56q0 -27 -13 -40.5t-31 -13.5q-19 0 -40.5 17t-24.5 17q-30 0 -79 -82v-228q0 -46 18 -59.5t76 -13.5v-29h-250v29q48 0 60.5 12.5t12.5 55.5v275q0 17 -0.5 24.5t-4 15.5t-11 11t-20.5 3l-31 -2v28l124 30h24zM56 678
h39l102 -98l103 98h38l-108 -153h-66z" />
    <glyph glyph-name="Sacute" unicode="&#x15a;" horiz-adv-x="504" 
d="M440 467h-30q-22 87 -58 125t-109 37q-51 0 -79 -24t-28 -70q0 -25 9.5 -46t32 -39.5t39.5 -29.5t52 -31q3 -2 5 -3t4.5 -2.5t4.5 -2.5q5 -3 26.5 -15l27.5 -15.5l25 -15t26 -17.5l22 -18t21 -21t16 -22.5t13.5 -26.5t7 -29t3.5 -34q0 -85 -56.5 -132t-146.5 -47
q-62 0 -113.5 15t-52.5 15q-11 0 -18.5 -9t-8.5 -24h-31l-9 216h31q25 -100 66.5 -135t121.5 -34q122 0 122 106q0 18 -4 34t-15 30.5t-19.5 24t-28.5 23t-29.5 19l-35.5 20t-34 19.5q-39 22 -60.5 36.5t-48.5 39.5t-39.5 55.5t-12.5 67.5q0 76 54 118.5t136 43.5
q54 0 93.5 -15.5t43.5 -15.5q24 0 31 29h26zM154 698l105 128h100v-21l-159 -107h-46z" />
    <glyph glyph-name="sacute" unicode="&#x15b;" horiz-adv-x="394" 
d="M39 164h26q16 -76 46.5 -107t86.5 -31q86 0 86 66q0 35 -21 56.5t-91 55.5q-72 37 -102 69.5t-30 85.5q0 60 43 93t110 33q51 0 105 -26h1l17 21h20l3 -153h-27q-16 69 -44 96.5t-76 27.5q-36 0 -58.5 -17t-22.5 -49q0 -28 25.5 -50.5t91.5 -56.5q75 -40 107.5 -73.5
t32.5 -85.5q0 -66 -47 -98t-121 -32q-53 0 -114 26h-2l-21 -23h-21zM147 521l70 153h93v-18l-124 -135h-39z" />
    <glyph glyph-name="Scircumflex" unicode="&#x15c;" horiz-adv-x="504" 
d="M440 467h-30q-22 87 -58 125t-109 37q-51 0 -79 -24t-28 -70q0 -25 9.5 -46t32 -39.5t39.5 -29.5t52 -31q3 -2 5 -3t4.5 -2.5t4.5 -2.5q5 -3 26.5 -15l27.5 -15.5l25 -15t26 -17.5l22 -18t21 -21t16 -22.5t13.5 -26.5t7 -29t3.5 -34q0 -85 -56.5 -132t-146.5 -47
q-62 0 -113.5 15t-52.5 15q-11 0 -18.5 -9t-8.5 -24h-31l-9 216h31q25 -100 66.5 -135t121.5 -34q122 0 122 106q0 18 -4 34t-15 30.5t-19.5 24t-28.5 23t-29.5 19l-35.5 20t-34 19.5q-39 22 -60.5 36.5t-48.5 39.5t-39.5 55.5t-12.5 67.5q0 76 54 118.5t136 43.5
q54 0 93.5 -15.5t43.5 -15.5q24 0 31 29h26zM397 698h-40l-107 81l-105 -81h-42l112 138h72z" />
    <glyph glyph-name="scircumflex" unicode="&#x15d;" horiz-adv-x="394" 
d="M39 164h26q16 -76 46.5 -107t86.5 -31q86 0 86 66q0 35 -21 56.5t-91 55.5q-72 37 -102 69.5t-30 85.5q0 60 43 93t110 33q51 0 105 -26h1l17 21h20l3 -153h-27q-16 69 -44 96.5t-76 27.5q-36 0 -58.5 -17t-22.5 -49q0 -28 25.5 -50.5t91.5 -56.5q75 -40 107.5 -73.5
t32.5 -85.5q0 -66 -47 -98t-121 -32q-53 0 -114 26h-2l-21 -23h-21zM342 521h-38l-103 98l-102 -98h-39l108 153h66z" />
    <glyph glyph-name="uni015E" unicode="&#x15e;" horiz-adv-x="504" 
d="M440 467h-30q-22 87 -58 125t-109 37q-51 0 -79 -24t-28 -70q0 -25 9.5 -46t32 -39.5t39.5 -29.5t52 -31q3 -2 5 -3t4.5 -2.5t4.5 -2.5q5 -3 26.5 -15l27.5 -15.5l25 -15t26 -17.5l22 -18t21 -21t16 -22.5t13.5 -26.5t7 -29t3.5 -34q0 -85 -56.5 -132t-146.5 -47
q-16 0 -23 1l-10 -46q12 2 28 2q39 0 60.5 -19t21.5 -54q0 -40 -28.5 -63.5t-75.5 -23.5q-38 0 -83 35l10 23q31 -19 64 -19q55 0 55 44q0 42 -43 42l-31 -3l-14 11l17 73q-38 4 -73 15.5t-41 11.5q-11 0 -18.5 -9t-8.5 -24h-31l-9 216h31q25 -100 66.5 -135t121.5 -34
q122 0 122 106q0 18 -4 34t-15 30.5t-19.5 24t-28.5 23t-29.5 19l-35.5 20t-34 19.5q-39 22 -60.5 36.5t-48.5 39.5t-39.5 55.5t-12.5 67.5q0 76 54 118.5t136 43.5q54 0 93.5 -15.5t43.5 -15.5q24 0 31 29h26z" />
    <glyph glyph-name="uni015F" unicode="&#x15f;" horiz-adv-x="394" 
d="M39 164h26q16 -76 46.5 -107t86.5 -31q86 0 86 66q0 35 -21 56.5t-91 55.5q-72 37 -102 69.5t-30 85.5q0 60 43 93t110 33q51 0 105 -26h1l17 21h20l3 -153h-27q-16 69 -44 96.5t-76 27.5q-36 0 -58.5 -17t-22.5 -49q0 -28 25.5 -50.5t91.5 -56.5q75 -40 107.5 -73.5
t32.5 -85.5q0 -66 -47 -98t-121 -32h-7l-10 -46q12 2 28 2q39 0 60.5 -19t21.5 -54q0 -40 -28.5 -63.5t-75.5 -23.5q-38 0 -83 35l10 23q31 -19 64 -19q55 0 55 44q0 42 -43 42l-31 -3l-14 11l18 73q-37 5 -79 24h-2l-21 -23h-21z" />
    <glyph glyph-name="Scaron" unicode="&#x160;" horiz-adv-x="504" 
d="M440 467h-30q-22 87 -58 125t-109 37q-51 0 -79 -24t-28 -70q0 -25 9.5 -46t32 -39.5t39.5 -29.5t52 -31q3 -2 5 -3t4.5 -2.5t4.5 -2.5q5 -3 26.5 -15l27.5 -15.5l25 -15t26 -17.5l22 -18t21 -21t16 -22.5t13.5 -26.5t7 -29t3.5 -34q0 -85 -56.5 -132t-146.5 -47
q-62 0 -113.5 15t-52.5 15q-11 0 -18.5 -9t-8.5 -24h-31l-9 216h31q25 -100 66.5 -135t121.5 -34q122 0 122 106q0 18 -4 34t-15 30.5t-19.5 24t-28.5 23t-29.5 19l-35.5 20t-34 19.5q-39 22 -60.5 36.5t-48.5 39.5t-39.5 55.5t-12.5 67.5q0 76 54 118.5t136 43.5
q54 0 93.5 -15.5t43.5 -15.5q24 0 31 29h26zM107 836h42l106 -81l106 81h40l-111 -138h-71z" />
    <glyph glyph-name="scaron" unicode="&#x161;" horiz-adv-x="394" 
d="M39 164h26q16 -76 46.5 -107t86.5 -31q86 0 86 66q0 35 -21 56.5t-91 55.5q-72 37 -102 69.5t-30 85.5q0 60 43 93t110 33q51 0 105 -26h1l17 21h20l3 -153h-27q-16 69 -44 96.5t-76 27.5q-36 0 -58.5 -17t-22.5 -49q0 -28 25.5 -50.5t91.5 -56.5q75 -40 107.5 -73.5
t32.5 -85.5q0 -66 -47 -98t-121 -32q-53 0 -114 26h-2l-21 -23h-21zM58 678h39l102 -98l103 98h38l-108 -153h-66z" />
    <glyph glyph-name="uni0162" unicode="&#x162;" horiz-adv-x="603" 
d="M587 477h-31q-17 86 -41 110.5t-104 24.5h-63v-481q0 -68 17 -84.5t82 -16.5v-30h-142l-13 -57q12 2 28 2q39 0 60.5 -19t21.5 -54q0 -40 -28.5 -63.5t-75.5 -23.5q-38 0 -83 35l10 23q31 -19 64 -19q55 0 55 44q0 42 -43 42l-31 -3l-14 11l20 82h-119v30q64 0 81 17
t17 84v481h-64q-80 0 -104.5 -25t-40.5 -110h-31l11 180h553z" />
    <glyph glyph-name="uni0163" unicode="&#x163;" horiz-adv-x="315" 
d="M293 90l19 -16q-24 -34 -36 -47.5t-34.5 -25t-53.5 -11.5h-1l-11 -47q12 2 28 2q39 0 60.5 -19t21.5 -54q0 -40 -28.5 -63.5t-75.5 -23.5q-38 0 -83 35l10 23q31 -19 64 -19q55 0 55 44q0 42 -43 42l-31 -3l-14 11l18 75q-66 14 -66 123v315h-55v23q35 22 60.5 57
t52.5 99h26l-1 -137h113v-42h-113v-287q0 -55 9.5 -75t38.5 -20q22 0 35.5 8.5t34.5 32.5z" />
    <glyph glyph-name="Tcaron" unicode="&#x164;" horiz-adv-x="603" 
d="M587 477h-31q-17 86 -41 110.5t-104 24.5h-63v-481q0 -68 17 -84.5t82 -16.5v-30h-290v30q64 0 81 17t17 84v481h-64q-80 0 -104.5 -25t-40.5 -110h-31l11 180h553zM155 836h42l106 -81l106 81h40l-111 -138h-71z" />
    <glyph glyph-name="tcaron" unicode="&#x165;" horiz-adv-x="353" 
d="M293 90l19 -16q-24 -34 -36 -47.5t-34.5 -25t-53.5 -11.5q-51 0 -73.5 29.5t-22.5 96.5v315h-55v23q35 22 60.5 57t52.5 99h26l-1 -137h113v-42h-113v-287q0 -55 9.5 -75t38.5 -20q22 0 35.5 8.5t34.5 32.5zM249 503l12 194h82v-18q-6 -88 -64 -180z" />
    <glyph glyph-name="Tbar" unicode="&#x166;" horiz-adv-x="603" 
d="M587 477h-31q-17 86 -41 110.5t-104 24.5h-63v-246h128v-39h-128v-196q0 -67 17 -84t82 -17v-30h-290v30q64 0 81 17t17 84v196h-128v39h128v246h-64q-80 0 -104.5 -25t-40.5 -110h-31l11 180h553z" />
    <glyph glyph-name="tbar" unicode="&#x167;" horiz-adv-x="328" 
d="M40 281v42h55v108h-55v23q35 22 60.5 57t52.5 99h26l-1 -137h113v-42h-113v-108h113v-42h-113v-137q0 -55 9.5 -75t38.5 -20q22 0 35.5 8.5t34.5 32.5l19 -16q-24 -34 -36 -47.5t-34.5 -25t-53.5 -11.5q-51 0 -73.5 29.5t-22.5 96.5v165h-55z" />
    <glyph glyph-name="Utilde" unicode="&#x168;" horiz-adv-x="752" 
d="M734 657v-30q-63 0 -78.5 -22.5t-15.5 -102.5v-241q0 -139 -63.5 -206t-203.5 -67q-134 0 -194.5 61.5t-60.5 200.5v289q0 53 -19.5 70.5t-78.5 17.5v30h288v-30q-62 0 -80 -17.5t-18 -75.5v-283q0 -102 42.5 -151t145.5 -49q98 0 141.5 46t43.5 150v252q0 81 -16 104.5
t-78 23.5v30h245zM541 816h26q-22 -102 -106 -102q-30 0 -72 18.5t-65 18.5q-44 0 -57 -39h-26q9 47 36.5 73t65.5 26q32 0 74.5 -18t64.5 -18q45 0 59 41z" />
    <glyph glyph-name="utilde" unicode="&#x169;" horiz-adv-x="570" 
d="M540 45v-27l-127 -23h-22v77h-5q-43 -42 -80.5 -62t-83.5 -20q-65 0 -98 42.5t-33 140.5v203q0 39 -12.5 48.5t-55.5 10.5v28l129 15h22v-292q0 -132 90 -132q35 0 61 14.5t62 45.5v263q0 38 -15.5 48t-65.5 10v28l140 15h24v-367q0 -43 11.5 -54.5t48.5 -11.5h10z
M414 642h26q-11 -56 -37 -81t-69 -25q-28 0 -69 21.5t-64 21.5q-43 0 -55 -46h-27q8 49 35.5 77t65.5 28q30 0 71.5 -21.5t64.5 -21.5q43 0 58 47z" />
    <glyph glyph-name="Umacron" unicode="&#x16a;" horiz-adv-x="752" 
d="M734 657v-30q-63 0 -78.5 -22.5t-15.5 -102.5v-241q0 -139 -63.5 -206t-203.5 -67q-134 0 -194.5 61.5t-60.5 200.5v289q0 53 -19.5 70.5t-78.5 17.5v30h288v-30q-62 0 -80 -17.5t-18 -75.5v-283q0 -102 42.5 -151t145.5 -49q98 0 141.5 46t43.5 150v252q0 81 -16 104.5
t-78 23.5v30h245zM546 726h-294v53h294v-53z" />
    <glyph glyph-name="umacron" unicode="&#x16b;" horiz-adv-x="570" 
d="M540 45v-27l-127 -23h-22v77h-5q-43 -42 -80.5 -62t-83.5 -20q-65 0 -98 42.5t-33 140.5v203q0 39 -12.5 48.5t-55.5 10.5v28l129 15h22v-292q0 -132 90 -132q35 0 61 14.5t62 45.5v263q0 38 -15.5 48t-65.5 10v28l140 15h24v-367q0 -43 11.5 -54.5t48.5 -11.5h10z
M420 555h-290v55h290v-55z" />
    <glyph glyph-name="Ubreve" unicode="&#x16c;" horiz-adv-x="752" 
d="M734 657v-30q-63 0 -78.5 -22.5t-15.5 -102.5v-241q0 -139 -63.5 -206t-203.5 -67q-134 0 -194.5 61.5t-60.5 200.5v289q0 53 -19.5 70.5t-78.5 17.5v30h288v-30q-62 0 -80 -17.5t-18 -75.5v-283q0 -102 42.5 -151t145.5 -49q98 0 141.5 46t43.5 150v252q0 81 -16 104.5
t-78 23.5v30h245zM518 865h29q-8 -79 -43.5 -116t-104.5 -37q-142 0 -148 153h30q14 -52 40 -70.5t78 -18.5q51 0 76 18t43 71z" />
    <glyph glyph-name="ubreve" unicode="&#x16d;" horiz-adv-x="570" 
d="M540 45v-27l-127 -23h-22v77h-5q-43 -42 -80.5 -62t-83.5 -20q-65 0 -98 42.5t-33 140.5v203q0 39 -12.5 48.5t-55.5 10.5v28l129 15h22v-292q0 -132 90 -132q35 0 61 14.5t62 45.5v263q0 38 -15.5 48t-65.5 10v28l140 15h24v-367q0 -43 11.5 -54.5t48.5 -11.5h10z
M391 683h30q-8 -80 -42.5 -117t-103.5 -37q-141 0 -147 154h30q14 -55 39 -73t78 -18q52 0 75 17.5t41 73.5z" />
    <glyph glyph-name="Uring" unicode="&#x16e;" horiz-adv-x="752" 
d="M734 657v-30q-63 0 -78.5 -22.5t-15.5 -102.5v-241q0 -139 -63.5 -206t-203.5 -67q-134 0 -194.5 61.5t-60.5 200.5v289q0 53 -19.5 70.5t-78.5 17.5v30h288v-30q-62 0 -80 -17.5t-18 -75.5v-283q0 -102 42.5 -151t145.5 -49q98 0 141.5 46t43.5 150v252q0 81 -16 104.5
t-78 23.5v30h245zM501 804q0 -45 -28.5 -70t-74.5 -25q-45 0 -73.5 25t-28.5 70q0 43 28.5 69t73.5 26q46 0 74.5 -26t28.5 -69zM457 804q0 27 -15.5 43.5t-43.5 16.5t-43.5 -16.5t-15.5 -43.5t15.5 -43.5t43.5 -16.5q59 0 59 60z" />
    <glyph glyph-name="uring" unicode="&#x16f;" horiz-adv-x="570" 
d="M540 45v-27l-127 -23h-22v77h-5q-43 -42 -80.5 -62t-83.5 -20q-65 0 -98 42.5t-33 140.5v203q0 39 -12.5 48.5t-55.5 10.5v28l129 15h22v-292q0 -132 90 -132q35 0 61 14.5t62 45.5v263q0 38 -15.5 48t-65.5 10v28l140 15h24v-367q0 -43 11.5 -54.5t48.5 -11.5h10z
M377 629q0 -47 -28.5 -73t-74.5 -26q-44 0 -73 26.5t-29 73.5q0 44 29 71.5t73 27.5q45 0 74 -27.5t29 -72.5zM333 630q0 28 -15.5 45.5t-43.5 17.5t-43 -17.5t-15 -45.5q0 -63 58 -63q59 0 59 63z" />
    <glyph glyph-name="Uhungarumlaut" unicode="&#x170;" horiz-adv-x="752" 
d="M734 657v-30q-63 0 -78.5 -22.5t-15.5 -102.5v-241q0 -139 -63.5 -206t-203.5 -67q-134 0 -194.5 61.5t-60.5 200.5v289q0 53 -19.5 70.5t-78.5 17.5v30h288v-30q-62 0 -80 -17.5t-18 -75.5v-283q0 -102 42.5 -151t145.5 -49q98 0 141.5 46t43.5 150v252q0 81 -16 104.5
t-78 23.5v30h245zM296 698l83 128h92v-19l-136 -109h-39zM439 698l83 128h93v-19l-138 -109h-38z" />
    <glyph glyph-name="uhungarumlaut" unicode="&#x171;" horiz-adv-x="570" 
d="M540 45v-27l-127 -23h-22v77h-5q-43 -42 -80.5 -62t-83.5 -20q-65 0 -98 42.5t-33 140.5v203q0 39 -12.5 48.5t-55.5 10.5v28l129 15h22v-292q0 -132 90 -132q35 0 61 14.5t62 45.5v263q0 38 -15.5 48t-65.5 10v28l140 15h24v-367q0 -43 11.5 -54.5t48.5 -11.5h10z
M180 521l65 153h92v-18l-119 -135h-38zM313 521l65 153h92v-18l-119 -135h-38z" />
    <glyph glyph-name="Uogonek" unicode="&#x172;" horiz-adv-x="753" 
d="M534 -134l14 -17q-33 -34 -59.5 -49.5t-67.5 -15.5q-40 0 -65 22.5t-25 59.5q0 54 84 120v4q-26 -2 -42 -2q-134 0 -194.5 61.5t-60.5 200.5v289q0 53 -19.5 70.5t-78.5 17.5v30h288v-30q-62 0 -80 -17.5t-18 -75.5v-283q0 -102 42.5 -151t145.5 -49q98 0 141.5 46
t43.5 150v252q0 81 -16 104.5t-78 23.5v30h245v-30q-63 0 -78.5 -22.5t-15.5 -102.5v-241q0 -110 -39 -174t-126 -88q-28 -12 -52 -43t-24 -66q0 -55 51 -55q26 0 43 6.5t41 24.5z" />
    <glyph glyph-name="uogonek" unicode="&#x173;" horiz-adv-x="570" 
d="M498 -134l14 -17q-35 -35 -61 -50t-66 -15t-65 22.5t-25 59.5q0 62 96 133v73h-5q-43 -42 -80.5 -62t-83.5 -20q-65 0 -98 42.5t-33 140.5v203q0 39 -12.5 48.5t-55.5 10.5v28l129 15h22v-292q0 -132 90 -132q35 0 61 14.5t62 45.5v263q0 38 -15.5 48t-65.5 10v28l140 15
h24v-367q0 -43 11.5 -54.5t48.5 -11.5h10v-27l-101 -18q-23 -17 -36.5 -29.5t-26.5 -34.5t-13 -46q0 -55 50 -55q27 0 44 6.5t41 24.5z" />
    <glyph glyph-name="Wcircumflex" unicode="&#x174;" horiz-adv-x="944" 
d="M943 657v-30q-35 -1 -53 -16t-32 -53l-193 -564h-27l-150 397h-4l-151 -397h-25l-208 524q-23 62 -46.5 84.5t-63.5 24.5v30h258v-30q-66 0 -66 -33q0 -19 14 -55l116 -292l31 -84h5l113 292l-28 77q-23 63 -42 79t-63 16v30h261v-30q-76 0 -76 -34q0 -14 17 -58
l104 -270l33 -99h5l114 332q18 58 18 87q0 42 -67 42v30h206zM607 698h-40l-107 81l-105 -81h-42l112 138h72z" />
    <glyph glyph-name="wcircumflex" unicode="&#x175;" horiz-adv-x="749" 
d="M762 473v-29q-29 0 -44 -13.5t-30 -52.5l-149 -384h-48l-106 291h-4l-117 -291h-46l-150 377q-19 46 -35.5 59.5t-49.5 13.5v29h215v-29q-53 0 -53 -25q0 -11 11 -39l87 -221l18 -58h7l21 58l72 182l-11 30q-17 47 -33 60t-50 13v29h209v-29q-50 0 -50 -25q0 -14 9 -41
l81 -219l18 -58h6l20 58l79 224q6 30 6 36q0 25 -56 25v29h173zM515 521h-38l-103 98l-102 -98h-39l108 153h66z" />
    <glyph glyph-name="Ycircumflex" unicode="&#x176;" horiz-adv-x="647" 
d="M652 657v-30q-46 -4 -71 -22t-61 -77l-148 -247v-150q0 -65 20 -83t84 -18v-30h-296v30q66 0 83 17t17 84v145l-127 205q-58 95 -88.5 120.5t-69.5 25.5v30h269v-30q-67 0 -67 -23q0 -20 17 -46l90 -144l44 -78h6l132 225q12 19 12 39q0 14 -13.5 20.5t-50.5 6.5v30h218z
M487 698h-40l-107 81l-105 -81h-42l112 138h72z" />
    <glyph glyph-name="ycircumflex" unicode="&#x177;" horiz-adv-x="483" 
d="M493 473v-29q-29 0 -43.5 -12.5t-25.5 -43.5l-156 -410q-42 -110 -83.5 -154.5t-102.5 -44.5q-74 0 -74 52q0 43 47 43q19 0 44.5 -11t36.5 -11q22 0 55.5 63.5t33.5 89.5q0 14 -30 82l-147 321q-16 36 -60 36v29h214v-30q-32 0 -44.5 -6.5t-12.5 -20.5q0 -10 14 -43
l98 -220l14 -52h7l96 293q5 20 5 25q0 25 -56 25v29h170zM402 521h-38l-103 98l-102 -98h-39l108 153h66z" />
    <glyph glyph-name="Ydieresis" unicode="&#x178;" horiz-adv-x="647" 
d="M652 657v-30q-46 -4 -71 -22t-61 -77l-148 -247v-150q0 -65 20 -83t84 -18v-30h-296v30q66 0 83 17t17 84v145l-127 205q-58 95 -88.5 120.5t-69.5 25.5v30h269v-30q-67 0 -67 -23q0 -20 17 -46l90 -144l44 -78h6l132 225q12 19 12 39q0 14 -13.5 20.5t-50.5 6.5v30h218z
M509 763q0 -23 -15 -38t-41 -15q-27 0 -41.5 15t-14.5 38q0 24 15 39t41 15t41 -15t15 -39zM284 763q0 -23 -15.5 -38t-41.5 -15q-27 0 -41.5 15t-14.5 38q0 24 15 39t41 15q27 0 42 -15t15 -39z" />
    <glyph glyph-name="Zacute" unicode="&#x179;" horiz-adv-x="594" 
d="M567 186l-29 -186h-510v29l408 575v8h-181q-81 0 -115 -25t-48 -105h-32l11 175h489v-28l-405 -579v-6h209q57 0 88.5 13.5t48.5 41.5t35 87h31zM218 698l105 128h100v-21l-159 -107h-46z" />
    <glyph glyph-name="zacute" unicode="&#x17a;" horiz-adv-x="458" 
d="M425 160l-10 -160h-384v29l281 399v3h-135q-52 0 -72 -24.5t-27 -80.5h-31l5 147h369v-29l-281 -400v-3h125q63 0 87.5 24t39.5 95h33zM186 521l70 153h93v-18l-124 -135h-39z" />
    <glyph glyph-name="Zdotaccent" unicode="&#x17b;" horiz-adv-x="594" 
d="M567 186l-29 -186h-510v29l408 575v8h-181q-81 0 -115 -25t-48 -105h-32l11 175h489v-28l-405 -579v-6h209q57 0 88.5 13.5t48.5 41.5t35 87h31zM377 764q0 -26 -16.5 -42.5t-45.5 -16.5q-31 0 -47.5 16t-16.5 43q0 26 17.5 42t46.5 16t45.5 -16t16.5 -42z" />
    <glyph glyph-name="zdotaccent" unicode="&#x17c;" horiz-adv-x="458" 
d="M425 160l-10 -160h-384v29l281 399v3h-135q-52 0 -72 -24.5t-27 -80.5h-31l5 147h369v-29l-281 -400v-3h125q63 0 87.5 24t39.5 95h33zM296 606q0 -25 -14.5 -40t-40.5 -15q-27 0 -42 15t-15 40t15.5 39.5t41.5 14.5t40.5 -15t14.5 -39z" />
    <glyph glyph-name="Zcaron" unicode="&#x17d;" horiz-adv-x="594" 
d="M567 186l-29 -186h-510v29l408 575v8h-181q-81 0 -115 -25t-48 -105h-32l11 175h489v-28l-405 -579v-6h209q57 0 88.5 13.5t48.5 41.5t35 87h31zM167 836h42l106 -81l106 81h40l-111 -138h-71z" />
    <glyph glyph-name="zcaron" unicode="&#x17e;" horiz-adv-x="458" 
d="M425 160l-10 -160h-384v29l281 399v3h-135q-52 0 -72 -24.5t-27 -80.5h-31l5 147h369v-29l-281 -400v-3h125q63 0 87.5 24t39.5 95h33zM99 678h39l102 -98l103 98h38l-108 -153h-66z" />
    <glyph glyph-name="longs" unicode="&#x17f;" horiz-adv-x="285" 
d="M26 473h76q0 110 32 167q22 37 52.5 55t80.5 18t81 -18.5t31 -51.5q0 -21 -11.5 -32t-29.5 -11q-25 0 -52.5 38t-52.5 38q-27 0 -37.5 -25t-10.5 -89v-443q0 -57 19.5 -73.5t82.5 -16.5v-29h-269v29q55 0 69.5 15.5t14.5 74.5v312h-76v42z" />
    <glyph glyph-name="uni0180" unicode="&#x180;" horiz-adv-x="522" 
d="M163 706v-132h197v-39h-197v-135h3q71 85 154 85q74 0 120.5 -62t46.5 -160q0 -131 -66 -202t-174 -71q-93 0 -167 40v505h-72v39h72v18q0 34 -8 43.5t-36 9.5l-28 -2v28l129 35h26zM163 356v-278q39 -47 102 -47q67 0 99 55t32 145q0 186 -120 186q-34 0 -65 -19.5
t-48 -41.5z" />
    <glyph glyph-name="uni0188" unicode="&#x188;" horiz-adv-x="446" 
d="M408 148l19 -14q-33 -70 -76.5 -107t-117.5 -37q-92 0 -146 65t-54 171q0 119 59.5 189t166.5 70q38 0 65 -10q1 41 6 71.5t18 59.5t39 44.5t64 15.5q41 0 62.5 -18.5t21.5 -48.5q0 -18 -9 -27.5t-23 -9.5q-15 0 -26 10.5t-16 23t-13.5 23t-20.5 10.5q-59 0 -59 -125v-49
q43 -30 43 -76q0 -45 -42 -45q-25 0 -39 18t-19.5 39t-22.5 39t-46 18q-62 0 -96 -45t-34 -130q0 -95 38.5 -151.5t113.5 -56.5q47 0 78 18.5t66 64.5z" />
    <glyph glyph-name="uni0190" unicode="&#x190;" horiz-adv-x="518" 
d="M267 625q-59 0 -91 -31t-32 -84q0 -137 167 -137h50v-50h-53q-169 0 -169 -141q0 -126 153 -126q106 0 179 85l22 -20q-80 -132 -232 -132q-221 0 -221 181q0 74 48 121t107 57v6q-33 14 -50 22.5t-43.5 27.5t-39 46t-12.5 62q0 71 63.5 112t158.5 41q108 0 155.5 -31.5
t47.5 -81.5q0 -21 -13 -33.5t-35 -12.5q-21 0 -34.5 12.5t-21.5 30t-18.5 34.5t-32 29.5t-53.5 12.5z" />
    <glyph glyph-name="uni0192" unicode="&#x192;" horiz-adv-x="301" 
d="M23 473h76q0 110 32 167q22 37 52.5 55t80.5 18t81 -18.5t31 -51.5q0 -21 -11.5 -32t-29.5 -11q-25 0 -52.5 38t-52.5 38q-27 0 -37.5 -25t-10.5 -89v-89h122v-42h-122v-421q0 -50 -6 -86t-22 -69t-48 -50t-80 -17q-52 0 -84 19t-32 51q0 43 39 43q16 0 28.5 -11.5
t19.5 -26t20 -26t31 -11.5q32 0 41.5 24t9.5 89v492h-76v42z" />
    <glyph glyph-name="uni0195" unicode="&#x195;" horiz-adv-x="798" 
d="M390 151v119q0 73 -18.5 112t-73.5 39q-28 0 -52.5 -13.5t-62.5 -48.5v-262q0 -42 12.5 -55t61.5 -13v-29h-227v29q41 0 55.5 12t14.5 52v512q0 24 -12.5 32t-36.5 8l-29 -2v28l134 35h27v-303h3q49 46 81.5 64t71.5 18q134 0 134 -185v-119q0 -79 16.5 -105.5
t69.5 -26.5q84 0 116 45t32 137q0 45 -14.5 82t-31.5 56.5t-31.5 40.5t-14.5 37q0 15 9.5 25.5t27.5 10.5q28 0 49 -23t31 -58t14.5 -66t4.5 -58q0 -135 -52 -211.5t-155 -76.5q-78 0 -116 35.5t-38 125.5z" />
    <glyph glyph-name="uni0199" unicode="&#x199;" horiz-adv-x="538" 
d="M535 0h-220v29q38 0 38 12q0 13 -11 24l-157 178h-6v-152q0 -39 13.5 -50.5t60.5 -11.5v-29h-227v29q45 0 57.5 12t12.5 54v388q0 98 36 156q48 74 151 74q56 0 90.5 -18.5t34.5 -51.5q0 -21 -12 -32t-31 -11q-21 0 -39 19l-37.5 38t-46.5 19q-63 0 -63 -93v-318h6
l130 128q17 17 17 32q0 17 -49 18v30h216v-30q-43 0 -71 -16.5t-117 -92.5l-58 -49l176 -198q35 -39 54 -48.5t52 -9.5v-29z" />
    <glyph glyph-name="uni019A" unicode="&#x19a;" horiz-adv-x="287" 
d="M262 29v-29h-230v29q47 0 58.5 13.5t11.5 58.5v255h-72v34h72v213q0 28 -10 35.5t-32 7.5l-32 -2v27l132 35h25v-316h76v-34h-76v-255q0 -46 12.5 -59t64.5 -13z" />
    <glyph glyph-name="uni019B" unicode="&#x19b;" horiz-adv-x="495" 
d="M111 485l-18 34l110 57q-23 45 -39 45q-11 0 -39 -11t-47 -11q-46 0 -46 41q0 54 76 54q44 0 76.5 -22.5t59.5 -74.5l111 58l16 -34l-111 -58q13 -28 27 -68l150 -410q11 -31 24.5 -43.5t41.5 -12.5v-29h-170v29q58 0 58 26q0 11 -4 27l-94 290h-7l-16 -52l-106 -220
q-15 -35 -15 -44q0 -14 11.5 -20t43.5 -6v-30h-214v29q45 0 62 36l199 396q-15 45 -31 81z" />
    <glyph glyph-name="uni019E" unicode="&#x19e;" horiz-adv-x="559" 
d="M481 307v-426q0 -44 13 -58.5t61 -14.5v-28h-231v28q50 0 62 14t12 59v401q0 81 -25.5 110t-66.5 29q-25 0 -50.5 -12t-36.5 -21t-34 -30v-257q0 -45 12.5 -59t63.5 -14v-28h-229v28q48 0 59 14t11 59v281q0 26 -10 35t-32 9l-27 -2v29l127 29h23l-1 -81h4
q49 43 83.5 63.5t77.5 20.5q134 0 134 -178z" />
    <glyph glyph-name="Ohorn" unicode="&#x1a0;" horiz-adv-x="737" 
d="M589 613q-18 0 -36 2v-6q134 -89 134 -271q0 -158 -86 -254t-232 -96q-149 0 -234 91t-85 250q0 154 86 247t233 93q33 0 100.5 -13t111.5 -13q29 0 44.5 10.5t15.5 25.5q0 13 -16 40t-16 37q0 20 13 31t32 11q25 0 41.5 -18t16.5 -54q0 -38 -28.5 -75.5t-94.5 -37.5z
M582 335q0 134 -59 213t-157 79q-97 0 -154 -78t-57 -214q0 -144 54.5 -224.5t160.5 -80.5q212 0 212 305z" />
    <glyph glyph-name="ohorn" unicode="&#x1a1;" horiz-adv-x="516" 
d="M257 485q44 0 88 -11q22 -5 31 -5q70 0 70 38q0 18 -15.5 43t-15.5 39q0 18 12.5 28.5t28.5 10.5q21 0 36 -17t15 -51q0 -45 -27.5 -77t-81.5 -38v-4q82 -75 82 -195q0 -123 -61 -189.5t-161 -66.5q-106 0 -165 65.5t-59 186.5q0 109 61 176t162 67zM254 447
q-59 0 -93 -49t-34 -143q0 -227 135 -225q65 0 95.5 47t30.5 164q0 95 -34.5 150.5t-99.5 55.5z" />
    <glyph glyph-name="uni01A5" unicode="&#x1a5;" horiz-adv-x="522" 
d="M163 580v-180h4q71 85 152 85q74 0 121 -63t47 -161q0 -124 -63 -197.5t-156 -73.5q-35 0 -105 28v-131q0 -48 19 -63t78 -15v-29h-253v28q46 0 59.5 14.5t13.5 58.5v603q0 106 45 167.5t142 61.5q56 0 90.5 -19t34.5 -51q0 -44 -42 -44q-18 0 -33 12t-25 26t-27 26
t-38 12q-32 0 -47.5 -22t-16.5 -73zM163 356v-261q1 -1 7 -7.5t8.5 -9.5t9 -9.5t11 -10l11.5 -9t14 -8.5t15 -6t16.5 -4.5t17.5 -1.5q55 0 89 52t34 152q0 184 -118 184q-36 0 -66.5 -19t-48.5 -42z" />
    <glyph glyph-name="uni01AA" unicode="&#x1aa;" horiz-adv-x="298" 
d="M213 450v-533q0 -65 9.5 -89t41.5 -24q18 0 31 11.5t20 26t19.5 26t28.5 11.5q39 0 39 -43q0 -32 -32 -51t-84 -19q-48 0 -80 17t-48 50t-22 69t-6 86v498q-31 -18 -68 -18q-61 0 -93.5 31.5t-32.5 87.5q0 55 36 90t93 35q148 0 148 -262zM130 522v40q0 112 -76 112
q-37 0 -60 -23t-23 -64q0 -81 93 -81q38 0 66 16z" />
    <glyph glyph-name="uni01AB" unicode="&#x1ab;" horiz-adv-x="321" 
d="M293 90l19 -16v-123q0 -175 -123 -175q-41 0 -65 20t-24 49q0 35 33 35q15 0 26 -10.5t16 -23t13.5 -23t20.5 -10.5q25 0 42 28t17 91v90h-3q-36 -32 -77 -32q-51 0 -73.5 29.5t-22.5 96.5v315h-55v23q35 22 60.5 57t52.5 99h26l-1 -137h113v-42h-113v-287q0 -55 9.5 -75
t38.5 -20q22 0 35.5 8.5t34.5 32.5z" />
    <glyph glyph-name="uni01AD" unicode="&#x1ad;" horiz-adv-x="315" 
d="M293 90l19 -16q-24 -34 -36 -47.5t-34.5 -25t-53.5 -11.5q-51 0 -73.5 29.5t-22.5 96.5v315h-55v23q32 23 56 54q4 81 36 131q46 74 151 74q56 0 90.5 -18.5t34.5 -51.5q0 -21 -12 -32t-31 -11q-22 0 -39.5 19t-37 38t-46.5 19q-32 0 -47.5 -22t-16.5 -73v-108h113v-42
h-113v-287q0 -55 9.5 -75t38.5 -20q22 0 35.5 8.5t34.5 32.5z" />
    <glyph glyph-name="Uhorn" unicode="&#x1af;" horiz-adv-x="762" 
d="M489 627v30h193q71 0 71 36q0 12 -16.5 46t-16.5 51q0 16 12 28t31 12q25 0 43 -19t18 -55q0 -35 -23.5 -74t-74.5 -51q-42 -10 -57.5 -20.5t-22 -34.5t-6.5 -82v-233q0 -139 -63.5 -206t-203.5 -67q-134 0 -194.5 61.5t-60.5 200.5v289q0 53 -19.5 70.5t-78.5 17.5v30
h288v-30q-62 0 -80 -17.5t-18 -75.5v-283q0 -102 41.5 -151t140.5 -49q103 0 147 46t44 150v252q0 81 -16 104.5t-78 23.5z" />
    <glyph glyph-name="uhorn" unicode="&#x1b0;" horiz-adv-x="574" 
d="M540 45v-27l-127 -23h-22v77h-5q-43 -42 -80.5 -62t-83.5 -20q-65 0 -98 42.5t-33 140.5v203q0 39 -12.5 48.5t-55.5 10.5v28l129 15h22v-292q0 -132 90 -132q35 0 61 14.5t62 45.5v263q0 38 -15.5 48t-65.5 10v28l140 15h21q53 0 53 36q0 18 -15.5 39.5t-15.5 35.5
q0 18 12.5 28.5t28.5 10.5q22 0 36.5 -16.5t14.5 -50.5q0 -106 -111 -109v-341q0 -43 11.5 -54.5t48.5 -11.5h10z" />
    <glyph glyph-name="uni01B5" unicode="&#x1b5;" horiz-adv-x="594" 
d="M568 186l-29 -186h-510v29l211 298h-126v39h153l170 238v8h-181q-81 0 -115 -25t-48 -105h-32l11 175h489v-28l-185 -263h112v-39h-139l-193 -277v-6h209q57 0 88.5 13.5t48.5 41.5t35 87h31z" />
    <glyph glyph-name="uni01BA" unicode="&#x1ba;" horiz-adv-x="430" 
d="M173 -231q-65 0 -98 27t-33 68q0 37 19 62t48 35.5l62 22l62 22t48 35.5t19 63q0 94 -153 94q-15 0 -47 -2v26l168 206v3h-111q-52 0 -72 -24.5t-27 -80.5h-26v147h345v-29l-177 -203v-7q19 4 41 4q64 0 107 -35t43 -97q0 -55 -32 -88.5t-77.5 -47t-90.5 -23.5t-77 -29
t-32 -52q0 -32 28.5 -48.5t68.5 -16.5q28 0 50 15t33 33t27 33t33 15q38 0 38 -43q0 -37 -44.5 -61t-142.5 -24z" />
    <glyph glyph-name="uni01BB" unicode="&#x1bb;" horiz-adv-x="508" 
d="M53 309l-1 44h253q39 69 39 149q0 61 -34.5 97t-91.5 36q-52 0 -88.5 -26t-65.5 -86l-25 11q52 166 204 166q87 0 141 -51.5t54 -136.5q0 -79 -58 -159h92l1 -44h-130q-73 -83 -75 -85l-131 -140v-5l73 3h137q40 0 57 17.5t37 69.5h30l-34 -169h-404v37l152 165
q47 49 90 107h-222z" />
    <glyph glyph-name="uni01BE" unicode="&#x1be;" horiz-adv-x="406" 
d="M185 431v-68q29 -4 49 -8.5t49.5 -17.5t48 -32t32 -54t13.5 -81q0 -82 -44 -131.5t-134 -49.5q-53 0 -114 26h-2l-21 -23h-21l-3 172h26q16 -77 46 -108.5t86 -31.5q54 0 73.5 32t19.5 110q0 51 -16.5 86.5t-45.5 54.5t-55.5 27t-61.5 13l-8 8v76h-67v23q80 49 125 156
h26l-1 -137h121v-42h-121z" />
    <glyph glyph-name="uni01C0" unicode="&#x1c0;" horiz-adv-x="250" 
d="M165 706v-706h-80v706h80z" />
    <glyph glyph-name="uni01C1" unicode="&#x1c1;" horiz-adv-x="423" 
d="M165 706v-706h-80v706h80zM338 706v-706h-80v706h80z" />
    <glyph glyph-name="uni01C2" unicode="&#x1c2;" horiz-adv-x="422" 
d="M381 286h-130v-286h-80v286h-130v49h130v90h-130v48h130v233h80v-233h130v-48h-130v-90h130v-49z" />
    <glyph glyph-name="uni01C3" unicode="&#x1c3;" horiz-adv-x="245" 
d="M105 170l-27 409q-4 56 -4 65q0 31 10.5 45.5t39.5 14.5q28 0 38 -15t10 -47q0 -28 -3 -63l-29 -409h-35zM180 47q0 -23 -15.5 -39t-41.5 -16q-28 0 -42.5 15t-14.5 41q0 24 15.5 41t41.5 17t41.5 -17.5t15.5 -41.5z" />
    <glyph glyph-name="uni01DE" unicode="&#x1de;" horiz-adv-x="718" 
d="M714 0h-269v30q69 0 69 37q0 23 -17 62l-39 90h-256l-45 -106q-11 -29 -11 -49t15 -27t52 -7v-30h-210v30q42 0 62 22t56 108l212 502h41l237 -543q23 -51 43.5 -70t59.5 -19v-30zM443 259l-110 280h-3l-113 -280h226zM523 753q0 -23 -15 -38t-41 -15q-27 0 -41.5 15
t-14.5 38q0 24 15 39t41 15t41 -15t15 -39zM298 753q0 -23 -15.5 -38t-41.5 -15q-27 0 -41.5 15t-14.5 38q0 24 15 39t41 15q27 0 42 -15t15 -39zM501 846h-294v53h294v-53z" />
    <glyph glyph-name="uni01DF" unicode="&#x1df;" horiz-adv-x="480" 
d="M308 62h-4q-42 -36 -72.5 -52.5t-74.5 -16.5q-56 0 -87.5 31t-31.5 81q0 32 14.5 58t33.5 42.5t52 31.5t55.5 22t59 17t48.5 14v44q0 64 -22 92t-68 28q-41 0 -54 -17t-13 -64q0 -46 -44 -46q-17 0 -29.5 12.5t-12.5 35.5q0 44 49 77t127 33q80 0 115 -37t35 -117v-227
q0 -29 6.5 -39t23.5 -10q24 0 47 25l15 -16q-26 -38 -48.5 -53.5t-59.5 -15.5q-31 0 -43 15.5t-17 51.5zM301 92v165q-41 -10 -67 -19t-53.5 -24t-41 -36t-13.5 -49q0 -37 19.5 -59t52.5 -22q50 0 103 44zM396 607q0 -25 -15 -40.5t-41 -15.5t-41 15.5t-15 40.5q0 24 15 39
t41 15t41 -15t15 -39zM176 607q0 -25 -14.5 -40.5t-40.5 -15.5q-27 0 -41.5 15.5t-14.5 40.5q0 24 15 39t41 15q25 0 40 -15t15 -39zM376 715h-290v55h290v-55z" />
    <glyph glyph-name="uni01F0" unicode="&#x1f0;" horiz-adv-x="263" 
d="M183 482v-484q0 -119 -42 -176t-130 -57q-49 0 -77.5 19.5t-28.5 52.5q0 19 12 30.5t32 11.5q24 0 49.5 -35t48.5 -35q34 0 43.5 34.5t9.5 124.5v405q0 33 -8.5 43.5t-35.5 10.5l-30 -3v30l130 28h27zM-12 678h39l102 -98l103 98h38l-108 -153h-66z" />
    <glyph glyph-name="Aringacute" unicode="&#x1fa;" horiz-adv-x="718" 
d="M714 0h-269v30q69 0 69 37q0 23 -17 62l-39 90h-256l-45 -106q-11 -29 -11 -49t15 -27t52 -7v-30h-210v30q42 0 62 22t56 108l212 502h41l237 -543q23 -51 43.5 -70t59.5 -19v-30zM443 259l-110 280h-3l-113 -280h226zM456 789q0 -45 -28.5 -70t-74.5 -25q-45 0 -73.5 25
t-28.5 70q0 43 28.5 69t73.5 26q46 0 74.5 -26t28.5 -69zM412 789q0 27 -15.5 43.5t-43.5 16.5t-43.5 -16.5t-15.5 -43.5t15.5 -43.5t43.5 -16.5q59 0 59 60zM258 898l105 128h100v-21l-159 -107h-46z" />
    <glyph glyph-name="aringacute" unicode="&#x1fb;" horiz-adv-x="480" 
d="M308 62h-4q-42 -36 -72.5 -52.5t-74.5 -16.5q-56 0 -87.5 31t-31.5 81q0 32 14.5 58t33.5 42.5t52 31.5t55.5 22t59 17t48.5 14v44q0 64 -22 92t-68 28q-41 0 -54 -17t-13 -64q0 -46 -44 -46q-17 0 -29.5 12.5t-12.5 35.5q0 44 49 77t127 33q80 0 115 -37t35 -117v-227
q0 -29 6.5 -39t23.5 -10q24 0 47 25l15 -16q-26 -38 -48.5 -53.5t-59.5 -15.5q-31 0 -43 15.5t-17 51.5zM301 92v165q-41 -10 -67 -19t-53.5 -24t-41 -36t-13.5 -49q0 -37 19.5 -59t52.5 -22q50 0 103 44zM333 619q0 -47 -28.5 -73t-74.5 -26q-44 0 -73 26.5t-29 73.5
q0 44 29 71.5t73 27.5q45 0 74 -27.5t29 -72.5zM289 620q0 28 -15.5 45.5t-43.5 17.5t-43 -17.5t-15 -45.5q0 -63 58 -63q59 0 59 63zM135 738l105 128h100v-21l-159 -107h-46z" />
    <glyph glyph-name="AEacute" unicode="&#x1fc;" horiz-adv-x="894" 
d="M865 186l-29 -186h-520v30q67 0 82 18.5t15 96.5v156h-171l-100 -182q-16 -25 -16 -51q0 -22 15.5 -30t52.5 -8v-30h-216v30q40 0 62.5 21.5t55.5 82.5l234 420q13 26 13 42q0 19 -13 25t-45 6v30h543l6 -164h-32q-10 75 -40.5 97t-121.5 22h-135v-272h104
q68 0 89.5 19.5t21.5 80.5h34v-228h-34q0 59 -20 74t-91 15h-104v-257h116q61 0 93.5 4.5t56 22.5t35 41.5t27.5 73.5h32zM413 340v272h-7l-147 -272h154zM466 698l105 128h100v-21l-159 -107h-46z" />
    <glyph glyph-name="aeacute" unicode="&#x1fd;" horiz-adv-x="709" 
d="M659 143l20 -14q-31 -66 -73.5 -102.5t-113.5 -36.5q-114 0 -171 88h-4q-71 -85 -167 -85q-49 0 -80.5 30.5t-31.5 79.5q0 27 8.5 49.5t27 39.5t36 30t46.5 24l46 17t48 14.5t41 11.5v45q0 64 -20 92t-64 28q-41 0 -54 -17t-13 -64q0 -46 -44 -46q-17 0 -29.5 12.5
t-12.5 35.5q0 44 48 77t124 33q90 0 123 -62h5q51 62 140 62q79 0 128 -58t53 -161h-301q0 -201 142 -201q55 0 84 19t59 59zM291 256q-40 -11 -64 -19.5t-50.5 -23t-39 -35.5t-12.5 -49q0 -37 19.5 -59t50.5 -22q54 0 109 60q-13 60 -13 148zM374 303h207q-2 61 -29 101.5
t-77 40.5q-96 0 -101 -142zM268 521l70 153h93v-18l-124 -135h-39z" />
    <glyph glyph-name="Oslashacute" unicode="&#x1fe;" horiz-adv-x="737" 
d="M106 -20l-31 24l59 76q-84 89 -84 249q0 154 86 247t233 93q109 0 185 -51l45 57l31 -24l-44 -57q101 -92 101 -256q0 -158 -86 -254t-232 -96q-126 0 -206 65zM582 335q0 117 -47 194h-2l-324 -418q56 -81 161 -81q212 0 212 305zM155 335q0 -113 33 -186h2l321 413
q-57 65 -145 65q-97 0 -154 -78t-57 -214zM271 698l105 128h100v-21l-159 -107h-46z" />
    <glyph glyph-name="oslashacute" unicode="&#x1ff;" horiz-adv-x="514" 
d="M65 -16l-28 22l47 61q-50 64 -50 175q0 109 61.5 176t162.5 67q71 0 123 -32l32 41l29 -22l-32 -41q70 -65 70 -185q0 -123 -61 -189.5t-161 -66.5q-92 0 -150 50zM388 241q0 79 -24 130l-211 -273q33 -68 109 -68q64 0 95 47t31 164zM254 447q-59 0 -93 -49t-34 -143
q0 -69 12 -116l205 265q-35 43 -90 43zM186 521l70 153h93v-18l-124 -135h-39z" />
    <glyph glyph-name="uni0218" unicode="&#x218;" horiz-adv-x="504" 
d="M440 467h-30q-22 87 -58 125t-109 37q-51 0 -79 -24t-28 -70q0 -25 9.5 -46t32 -39.5t39.5 -29.5t52 -31q3 -2 5 -3t4.5 -2.5t4.5 -2.5q5 -3 26.5 -15l27.5 -15.5l25 -15t26 -17.5l22 -18t21 -21t16 -22.5t13.5 -26.5t7 -29t3.5 -34q0 -85 -56.5 -132t-146.5 -47
q-62 0 -113.5 15t-52.5 15q-11 0 -18.5 -9t-8.5 -24h-31l-9 216h31q25 -100 66.5 -135t121.5 -34q122 0 122 106q0 18 -4 34t-15 30.5t-19.5 24t-28.5 23t-29.5 19l-35.5 20t-34 19.5q-39 22 -60.5 36.5t-48.5 39.5t-39.5 55.5t-12.5 67.5q0 76 54 118.5t136 43.5
q54 0 93.5 -15.5t43.5 -15.5q24 0 31 29h26zM195 -277l-10 25q78 28 78 96q-17 -6 -31 -6q-22 0 -36 14t-14 38q0 25 15.5 41t45.5 16q70 0 70 -85q0 -34 -11.5 -60t-33 -41.5t-36.5 -23t-37 -14.5z" />
    <glyph glyph-name="uni0219" unicode="&#x219;" horiz-adv-x="394" 
d="M39 164h26q16 -76 46.5 -107t86.5 -31q86 0 86 66q0 35 -21 56.5t-91 55.5q-72 37 -102 69.5t-30 85.5q0 60 43 93t110 33q51 0 105 -26h1l17 21h20l3 -153h-27q-16 69 -44 96.5t-76 27.5q-36 0 -58.5 -17t-22.5 -49q0 -28 25.5 -50.5t91.5 -56.5q75 -40 107.5 -73.5
t32.5 -85.5q0 -66 -47 -98t-121 -32q-53 0 -114 26h-2l-21 -23h-21zM143 -277l-10 25q78 28 78 96q-16 -6 -31 -6q-22 0 -36 14t-14 38q0 25 15.5 41t45.5 16q70 0 70 -85q0 -34 -11.5 -60t-33 -41.5t-36.5 -23t-37 -14.5z" />
    <glyph glyph-name="uni021A" unicode="&#x21a;" horiz-adv-x="603" 
d="M587 477h-31q-17 86 -41 110.5t-104 24.5h-63v-481q0 -68 17 -84.5t82 -16.5v-30h-290v30q64 0 81 17t17 84v481h-64q-80 0 -104.5 -25t-40.5 -110h-31l11 180h553zM252 -277l-10 25q78 28 78 96q-16 -6 -31 -6q-22 0 -36 14t-14 38q0 25 15.5 41t45.5 16q70 0 70 -85
q0 -34 -11.5 -60t-33 -41.5t-36.5 -23t-37 -14.5z" />
    <glyph glyph-name="uni021B" unicode="&#x21b;" horiz-adv-x="315" 
d="M293 90l19 -16q-24 -34 -36 -47.5t-34.5 -25t-53.5 -11.5q-51 0 -73.5 29.5t-22.5 96.5v315h-55v23q35 22 60.5 57t52.5 99h26l-1 -137h113v-42h-113v-287q0 -55 9.5 -75t38.5 -20q22 0 35.5 8.5t34.5 32.5zM136 -277l-10 25q78 28 78 96q-16 -6 -31 -6q-22 0 -36 14
t-14 38q0 25 15.5 41t45.5 16q70 0 70 -85q0 -34 -11.5 -60t-33 -41.5t-36.5 -23t-37 -14.5z" />
    <glyph glyph-name="uni0221" unicode="&#x221;" horiz-adv-x="674" 
d="M443 706v-581q0 -46 2.5 -62.5t12.5 -27.5h3q39 63 72 95.5t75 32.5q33 0 52 -19t19 -51q0 -51 -50 -77.5t-126 -26.5q-10 0 -30 2q-47 -78 -80 -145l-33 15q7 14 75 133v2q-60 12 -72 68h-4q-80 -72 -155 -72q-82 0 -126.5 63.5t-44.5 163.5q0 120 66 193t164 73
q53 0 97 -24v131q0 34 -7.5 43.5t-36.5 9.5l-26 -2v28l126 35h27zM360 101v264q-7 34 -31.5 57t-67.5 23q-65 0 -103 -47.5t-38 -139.5q0 -101 33 -147.5t98 -46.5q55 0 109 37zM490 22q14 -2 23 -2q49 0 89.5 18.5t40.5 52.5q0 20 -11 30t-28 10q-54 0 -114 -109z" />
    <glyph glyph-name="uni0228" unicode="&#x228;" horiz-adv-x="626" 
d="M598 186l-28 -186h-247l-13 -57q12 2 28 2q39 0 60.5 -19t21.5 -54q0 -40 -28.5 -63.5t-75.5 -23.5q-38 0 -83 35l10 23q31 -19 64 -19q55 0 55 44q0 42 -43 42l-31 -3l-14 11l20 82h-258v30q62 0 79.5 15t17.5 73v417q0 57 -18 74.5t-79 17.5v30h525l6 -164h-32
q-11 75 -41 97t-122 22h-147v-254h117q69 0 90.5 19.5t21.5 80.5h32v-232h-32q0 60 -20.5 76.5t-91.5 16.5h-117v-275h129q79 -1 117 11.5t56 39t39 91.5h32z" />
    <glyph glyph-name="uni0229" unicode="&#x229;" horiz-adv-x="464" 
d="M415 143l19 -14q-31 -66 -73.5 -102.5t-113.5 -36.5h-9l-11 -47q12 2 28 2q39 0 60.5 -19t21.5 -54q0 -40 -28.5 -63.5t-75.5 -23.5q-38 0 -83 35l10 23q31 -19 64 -19q55 0 55 44q0 42 -43 42l-31 -3l-14 11l18 75q-79 12 -127 76t-48 169q0 120 59 183.5t152 63.5
q83 0 132.5 -57.5t53.5 -161.5h-316q0 -98 45.5 -149.5t110.5 -51.5q55 0 84.5 19.5t59.5 58.5zM114 303h223q-2 60 -29.5 101t-77.5 41q-104 0 -116 -142z" />
    <glyph glyph-name="uni0234" unicode="&#x234;" horiz-adv-x="399" 
d="M163 706v-581q0 -46 2.5 -62.5t12.5 -27.5h3q40 66 73 99.5t74 33.5q34 0 55 -19.5t21 -55.5q0 -51 -52.5 -77.5t-128.5 -26.5q-10 0 -30 2q-47 -78 -80 -145l-33 15q7 14 75 133v2q-75 15 -75 107v500q0 28 -10 35.5t-32 7.5l-32 -2v27l132 35h25zM210 22q14 -2 23 -2
q49 0 89.5 18.5t40.5 52.5q0 20 -11 30t-28 10q-54 0 -114 -109z" />
    <glyph glyph-name="uni0235" unicode="&#x235;" horiz-adv-x="702" 
d="M185 101q0 -45 12.5 -59t63.5 -14v-28h-229v28q48 0 59 14t11 59v281q0 26 -10 35t-32 9l-27 -2v29l127 29h23l-1 -81h4q47 43 80.5 63.5t75.5 20.5q129 0 129 -178v-184q0 -46 2.5 -62.5t12.5 -27.5h3q39 63 72 95.5t75 32.5q33 0 52 -19t19 -51q0 -51 -50 -77.5
t-126 -26.5q-10 0 -30 2q-47 -78 -80 -145l-33 15q7 14 75 133v2q-75 15 -75 107v181q0 81 -24 110t-64 29q-23 0 -47.5 -12t-34.5 -20.5t-33 -30.5v-257zM520 20q14 -2 23 -2q49 0 89.5 18.5t40.5 52.5q0 20 -11 30t-28 10q-54 0 -114 -109z" />
    <glyph glyph-name="uni0236" unicode="&#x236;" horiz-adv-x="406" 
d="M92 101v330h-55v23q35 22 60.5 57t52.5 99h26l-1 -137h123v-42h-123v-317q0 -65 15 -81h3q39 63 72 95.5t75 32.5q33 0 52 -19t19 -51q0 -51 -50 -77.5t-126 -26.5q-10 0 -30 2q-47 -78 -80 -145l-33 15q7 14 75 133v2q-75 15 -75 107zM225 20q14 -2 23 -2
q49 0 89.5 18.5t40.5 52.5q0 20 -11 30t-28 10q-54 0 -114 -109z" />
    <glyph glyph-name="uni0237" unicode="&#x237;" horiz-adv-x="263" 
d="M183 482v-484q0 -119 -42 -176t-130 -57q-49 0 -77.5 19.5t-28.5 52.5q0 19 12 30.5t32 11.5q24 0 49.5 -35t48.5 -35q34 0 43.5 34.5t9.5 124.5v405q0 33 -8.5 43.5t-35.5 10.5l-30 -3v30l130 28h27z" />
    <glyph glyph-name="uni0250" unicode="&#x250;" horiz-adv-x="475" 
d="M167 416h4q42 36 72.5 52.5t74.5 16.5q56 0 87.5 -31t31.5 -81q0 -32 -14.5 -58t-33.5 -42.5t-52 -31.5t-55.5 -22t-59 -17t-48.5 -14v-44q0 -64 21 -92t67 -28q42 0 55.5 17.5t13.5 63.5t44 46q17 0 29.5 -12.5t12.5 -35.5q0 -45 -46 -77.5t-124 -32.5
q-81 0 -118.5 37.5t-37.5 116.5v227q0 29 -6.5 39t-23.5 10q-24 0 -47 -25l-15 16q26 38 48.5 53.5t59.5 15.5q31 0 43 -15.5t17 -51.5zM174 386v-165q41 10 67 19t53.5 24t41 36t13.5 49q0 37 -19.5 59t-52.5 22q-50 0 -103 -44z" />
    <glyph glyph-name="uni0251" unicode="&#x251;" horiz-adv-x="542" 
d="M513 18l-128 -23h-23v69h-4q-80 -72 -155 -72q-82 0 -126 63.5t-44 163.5q0 121 66 193.5t163 72.5q58 0 116 -37l24 33h40v-374q0 -38 10.5 -50t39.5 -12h21v-27zM359 101v264q-7 34 -32.5 57t-66.5 23q-65 0 -103 -47.5t-38 -139.5q0 -101 33 -147.5t98 -46.5
q55 0 109 37z" />
    <glyph glyph-name="uni0252" unicode="&#x252;" horiz-adv-x="544" 
d="M29 457l128 23h23v-69h4q80 72 155 72q82 0 126 -63.5t44 -163.5q0 -121 -66 -193.5t-163 -72.5q-58 0 -116 37l-41 -33h-23v374q0 38 -10.5 50t-39.5 12h-21v27zM183 374v-264q7 -34 32.5 -57t66.5 -23q65 0 103 47.5t38 139.5q0 101 -33 147.5t-98 46.5q-55 0 -109 -37
z" />
    <glyph glyph-name="uni0253" unicode="&#x253;" horiz-adv-x="518" 
d="M159 400h3q71 85 154 85q74 0 120.5 -62t46.5 -160q0 -131 -66 -202t-174 -71q-93 0 -167 40v453q0 98 36 156q48 74 151 74q56 0 90.5 -18.5t34.5 -51.5q0 -21 -12 -32t-31 -11q-21 0 -39 19l-37.5 38t-46.5 19q-63 0 -63 -96v-180zM159 356v-278q39 -47 102 -47
q67 0 99 55t32 145q0 186 -120 186q-34 0 -65 -19.5t-48 -41.5z" />
    <glyph glyph-name="uni0254" unicode="&#x254;" horiz-adv-x="454" 
d="M43 327l-19 14q33 70 76.5 107t117.5 37q92 0 146 -65t54 -171q0 -119 -59.5 -189t-166.5 -70q-69 0 -110.5 30.5t-41.5 75.5t42 45q25 0 39 -18t19.5 -39t22.5 -39t46 -18q62 0 96 45t34 130q0 95 -38.5 151.5t-113.5 56.5q-47 0 -78 -18.5t-66 -64.5z" />
    <glyph glyph-name="uni0255" unicode="&#x255;" horiz-adv-x="447" 
d="M112 273q0 -126 69 -189q62 92 145 92q37 0 62.5 -19.5t25.5 -58.5q0 -58 -46.5 -83t-118.5 -25q-37 0 -75 12q-21 -45 -48 -127l-36 10q22 68 52 130q-53 29 -81 84.5t-28 126.5q0 119 59.5 189t166.5 70q69 0 110.5 -30.5t41.5 -75.5t-42 -45q-25 0 -39 18t-19.5 39
t-22.5 39t-46 18q-62 0 -96 -45t-34 -130zM321 143q-61 0 -113 -78q32 -19 76 -19q89 0 89 54q0 43 -52 43z" />
    <glyph glyph-name="uni0256" unicode="&#x256;" horiz-adv-x="528" 
d="M443 706v-767q0 -65 10.5 -89t42.5 -24q18 0 31 11.5t20 26t19.5 26t28.5 11.5q39 0 39 -43q0 -32 -32 -51t-84 -19q-48 0 -80 17t-48 50t-22 69t-6 86v54h-4q-80 -72 -154 -72q-82 0 -126.5 63.5t-44.5 163.5q0 121 66 193.5t163 72.5q53 0 97 -24v131q0 34 -7.5 43.5
t-36.5 9.5l-26 -2v28l127 35h27zM359 101v264q-7 34 -31.5 57t-67.5 23q-65 0 -102.5 -47.5t-37.5 -139.5q0 -101 33 -147.5t98 -46.5q54 0 108 37z" />
    <glyph glyph-name="uni0257" unicode="&#x257;" horiz-adv-x="542" 
d="M442 573v-466q0 -38 10.5 -50t39.5 -12h27v-27l-133 -23h-24v69h-4q-77 -72 -154 -72q-82 0 -126.5 63.5t-44.5 163.5q0 121 66 193.5t163 72.5q53 0 97 -24v23q0 229 173 229q52 0 84 -18.5t32 -51.5q0 -21 -11.5 -32t-28.5 -11t-30 12t-20 26t-20 26t-31 12
q-34 0 -49 -24.5t-16 -78.5zM359 101v264q-7 34 -31.5 57t-67.5 23q-65 0 -102.5 -47.5t-37.5 -139.5q0 -101 33 -147.5t98 -46.5q54 0 108 37z" />
    <glyph glyph-name="uni0258" unicode="&#x258;" horiz-adv-x="466" 
d="M30 130l21 13q29 -39 60.5 -58.5t86.5 -19.5q65 0 109 51.5t44 149.5h-316q4 102 60.5 160.5t140.5 58.5q88 0 142 -63t54 -184q0 -117 -60 -182.5t-153 -65.5q-71 0 -114.5 37t-74.5 103zM129 303h223q-12 142 -116 142q-50 0 -77.5 -41t-29.5 -101z" />
    <glyph glyph-name="uni0259" unicode="&#x259;" horiz-adv-x="464" 
d="M49 332l-19 14q31 66 73.5 102.5t113.5 36.5q93 0 153 -65.5t60 -182.5q0 -118 -58 -182.5t-149 -64.5q-83 0 -134.5 58t-55.5 161h316q0 98 -45.5 149.5t-110.5 51.5q-55 0 -84.5 -19.5t-59.5 -58.5zM350 172h-223q2 -60 29.5 -101t77.5 -41q104 0 116 142z" />
    <glyph glyph-name="uni025A" unicode="&#x25a;" horiz-adv-x="642" 
d="M49 332l-19 14q31 66 73.5 102.5t113.5 36.5q66 0 118 -35t76 -99l94 55l15 -11q-5 -30 5 -55.5t35 -25.5q32 0 43.5 20t5.5 46l23 5q5 -17 5 -35q0 -38 -24 -63.5t-66 -25.5q-37 0 -58 26t-21 65l-2 1l-47 -27q11 -42 11 -89q0 -118 -58 -182.5t-149 -64.5
q-83 0 -134.5 58t-55.5 161h316q0 98 -45.5 149.5t-110.5 51.5q-55 0 -84.5 -19.5t-59.5 -58.5zM350 172h-223q2 -60 29.5 -101t77.5 -41q104 0 116 142z" />
    <glyph glyph-name="uni025B" unicode="&#x25b;" horiz-adv-x="399" 
d="M212 451q-86 0 -86 -80q0 -54 31.5 -74.5t88.5 -20.5h38v-47h-39q-65 0 -93.5 -23t-28.5 -75q0 -50 28.5 -68t83.5 -18q82 0 131 55l18 -15q-57 -96 -171 -96q-178 0 -178 133q0 55 36.5 89t81.5 42v4q-22 8 -36.5 15t-33.5 20.5t-29 33.5t-10 46q0 52 50 83t121 31
q81 0 120.5 -23t39.5 -60q0 -17 -13 -28t-30 -11q-19 0 -31 13.5t-18 30t-24 30t-47 13.5z" />
    <glyph glyph-name="uni025C" unicode="&#x25c;" horiz-adv-x="398" 
d="M187 451q-29 0 -47 -13.5t-24 -30t-18 -30t-31 -13.5q-17 0 -30 11t-13 28q0 36 41.5 59.5t123.5 23.5q70 0 118 -31t48 -83q0 -26 -10 -46t-29 -33.5t-33.5 -20.5t-36.5 -15v-4q45 -8 81 -40t36 -86q0 -71 -53 -104t-133 -33q-105 0 -162 95l18 15q49 -55 138 -55
q53 0 79 18t26 64q0 53 -28.5 77.5t-93.5 24.5h-39v47h38q57 0 88.5 20.5t31.5 74.5q0 80 -86 80z" />
    <glyph glyph-name="uni025D" unicode="&#x25d;" horiz-adv-x="575" 
d="M187 451q-29 0 -47 -13.5t-24 -30t-18 -30t-31 -13.5q-17 0 -30 11t-13 28q0 36 41.5 59.5t123.5 23.5q70 0 117 -31t47 -83q0 -8 -1 -11h5l81 45l15 -11q-5 -30 5 -55.5t35 -25.5q32 0 43.5 20t5.5 46l23 5q5 -17 5 -35q0 -38 -24 -63.5t-66 -25.5q-37 0 -58 26t-21 65
l-2 1l-57 -31q-21 -37 -96 -65v-4q45 -8 81 -40t36 -86q0 -71 -53 -104t-133 -33q-105 0 -162 95l18 15q49 -55 138 -55q53 0 79 18t26 64q0 53 -28.5 77.5t-93.5 24.5h-39v47h38q57 0 88.5 20.5t31.5 74.5q0 80 -86 80z" />
    <glyph glyph-name="uni025E" unicode="&#x25e;" horiz-adv-x="500" 
d="M34 239q0 112 67 179.5t173 67.5q78 0 130 -31t52 -83q0 -26 -10 -46t-29 -33.5t-33.5 -20.5t-36.5 -15v-4q45 -8 81.5 -42t36.5 -89q0 -70 -53 -101.5t-135 -31.5q-112 0 -177.5 68t-65.5 182zM266 30q48 0 79.5 26.5t31.5 74.5q0 52 -28.5 75t-93.5 23h-34v47h33
q57 0 88.5 20.5t31.5 74.5q0 81 -102 81q-75 0 -115.5 -59t-40.5 -153t38.5 -152t111.5 -58z" />
    <glyph glyph-name="uni025F" unicode="&#x25f;" horiz-adv-x="272" 
d="M187 482v-209h74v-42h-74v-233q0 -119 -42 -176t-130 -57q-49 0 -77.5 19.5t-28.5 52.5q0 19 12 30.5t32 11.5q24 0 49.5 -35t48.5 -35q34 0 43.5 34.5t9.5 124.5v263h-80v42h80v100q0 33 -8.5 43.5t-35.5 10.5l-30 -3v30l130 28h27z" />
    <glyph glyph-name="uni0260" unicode="&#x260;" horiz-adv-x="541" 
d="M441 585v-586q0 -70 -19 -118.5t-53.5 -72.5t-72 -33.5t-85.5 -9.5q-70 0 -114 23.5t-44 57.5q0 22 12 33.5t31 11.5q16 0 32.5 -14.5t28.5 -32t31.5 -32t41.5 -14.5q63 0 95.5 41t32.5 135v89h-3q-39 -35 -73.5 -53t-78.5 -18q-78 0 -124 62t-46 166q0 118 64.5 191.5
t161.5 73.5q49 0 95 -29h4v33q0 93 36 150q47 74 151 74q56 0 90.5 -18.5t34.5 -51.5q0 -21 -12 -32t-31 -11q-21 0 -39 19l-37.5 38t-46.5 19q-62 0 -63 -91zM358 103v263q-21 79 -100 79q-65 0 -102 -47.5t-37 -139.5q0 -193 132 -193q61 0 107 38z" />
    <glyph glyph-name="uni0261" unicode="&#x261;" horiz-adv-x="521" 
d="M441 481v-482q0 -70 -19 -118.5t-53.5 -72.5t-72 -33.5t-85.5 -9.5q-70 0 -114 23.5t-44 57.5q0 22 12 33.5t31 11.5q16 0 32.5 -14.5t28 -32t31.5 -32t43 -14.5q62 0 94.5 41t32.5 135v89h-3q-39 -35 -73.5 -53t-78.5 -18q-78 0 -124 62t-46 166q0 118 64.5 191.5
t161.5 73.5q63 0 118 -37l42 33h22zM358 103v263q-21 79 -100 79q-65 0 -102 -47.5t-37 -139.5q0 -193 132 -193q61 0 107 38z" />
    <glyph glyph-name="uni0262" unicode="&#x262;" horiz-adv-x="535" 
d="M515 226v-26q-31 0 -41 -10.5t-10 -45.5v-104q-47 -26 -86 -37.5t-96 -11.5q-122 0 -185 61.5t-63 182.5q0 123 69 186t182 63q49 0 87 -14t40 -14q3 0 5 0.5t4 2t3.5 3t3.5 4.5l3 4.5l4 6t4 6.5h25v-169h-29q-23 133 -149 133q-159 0 -159 -202q0 -218 160 -218
q34 0 54 7t44 26v78q0 39 -12 50.5t-53 11.5v26h195z" />
    <glyph glyph-name="uni0263" unicode="&#x263;" horiz-adv-x="479" 
d="M497 473v-29q-29 0 -44.5 -13.5t-30.5 -52.5l-137 -326q58 -130 58 -178q0 -101 -112 -101q-43 0 -63 23.5t-20 57.5q0 43 59 171l-140 346q-19 46 -34 59.5t-47 13.5v29h211v-29q-52 0 -52 -25q0 -16 10 -39l85 -214l19 -60h6l21 61l86 217q0 1 2 6.5t3.5 12.5t1.5 14
q0 27 -57 27v29h175zM229 -18q-37 -86 -37 -123q0 -51 39 -51q41 0 41 47q0 30 -43 127z" />
    <glyph glyph-name="uni0264" unicode="&#x264;" horiz-adv-x="466" 
d="M352 478q44 0 75.5 -26t31.5 -64q0 -20 -11 -31.5t-26 -11.5q-41 0 -41 42q0 28 -11 39.5t-36 11.5q-31 0 -68 -29q48 -50 76.5 -122t28.5 -139q0 -68 -37.5 -110.5t-115.5 -42.5q-59 0 -90 40.5t-31 105.5q0 60 29 130.5t76 124.5q-41 49 -79 49q-24 0 -33.5 -11.5
t-9.5 -43.5q0 -45 -39 -45q-15 0 -27 11.5t-12 33.5q0 38 32.5 63t83.5 25q66 0 122 -45q57 45 112 45zM137 146q0 -55 22 -82.5t59 -27.5q72 0 72 107q0 119 -67 224q-37 -47 -61.5 -107t-24.5 -114z" />
    <glyph glyph-name="uni0265" unicode="&#x265;" horiz-adv-x="553" 
d="M390 114v260q0 30 -10 38.5t-34 8.5l-25 -2v29l126 28h26v-615q0 -42 49 -42l29 1v-28l-134 -21h-27v299h-3q-88 -82 -162 -82q-134 0 -134 185v207q0 30 -10 38.5t-34 8.5l-25 -2v29l126 28h26v-279q0 -73 18.5 -112t73.5 -39q56 0 124 62z" />
    <glyph glyph-name="uni0266" unicode="&#x266;" horiz-adv-x="577" 
d="M100 489q0 93 36 150q47 74 151 74q56 0 90.5 -18.5t34.5 -51.5q0 -21 -12 -32t-31 -11q-21 0 -39 19l-37.5 38t-46.5 19q-63 0 -63 -84v-189h3q88 82 162 82q134 0 134 -185v-199q0 -42 14 -57t60 -15v-29h-230v29q48 0 60.5 14t12.5 54v173q0 73 -18.5 112t-73.5 39
q-56 0 -124 -62v-262q0 -42 12.5 -55t61.5 -13v-29h-227v29q41 0 55.5 12t14.5 52v396z" />
    <glyph glyph-name="uni0267" unicode="&#x267;" horiz-adv-x="562" 
d="M399 -32v302q0 73 -18.5 112t-73.5 39q-56 0 -124 -62v-262q0 -42 12.5 -55t61.5 -13v-29h-227v29q41 0 55.5 12t14.5 52v390q0 98 36 156q48 74 151 74q56 0 90.5 -18.5t34.5 -51.5q0 -21 -12 -32t-31 -11q-21 0 -39 19l-37.5 38t-46.5 19q-63 0 -63 -86v-187h3
q88 82 162 82q134 0 134 -185v-302q0 -119 -42 -176t-130 -57q-49 0 -77.5 19.5t-28.5 52.5q0 19 12 30.5t32 11.5q24 0 49.5 -35t48.5 -35q34 0 43.5 34.5t9.5 124.5z" />
    <glyph glyph-name="uni0268" unicode="&#x268;" horiz-adv-x="295" 
d="M262 28v-28h-225v28q48 0 59 13.5t11 59.5v146h-74v34h74v99q0 30 -10 38.5t-34 8.5l-25 -2v29l126 28h26v-201h74v-34h-74v-146q0 -46 12 -59.5t60 -13.5zM150 693q25 0 41 -16.5t16 -39.5q0 -24 -15.5 -40.5t-41.5 -16.5q-25 0 -41 16.5t-16 40.5q0 23 16 39.5t41 16.5
z" />
    <glyph glyph-name="uni0269" unicode="&#x269;" horiz-adv-x="286" 
d="M174 140q0 -52 10 -71.5t38 -19.5q22 0 35.5 8.5t34.5 32.5l19 -16q-24 -34 -36 -47.5t-34.5 -25t-53.5 -11.5q-50 0 -72.5 28t-23.5 92v270q0 30 -10 38.5t-34 8.5l-25 -2v29l126 28h26v-342z" />
    <glyph glyph-name="uni026A" unicode="&#x26a;" horiz-adv-x="287" 
d="M102 100v271q0 27 -1 36.5t-7 21t-20.5 14t-41.5 2.5v28h225v-28q-52 0 -62 -13.5t-10 -60.5v-271q0 -47 11.5 -59.5t60.5 -12.5v-28h-225v28q48 0 59 12t11 60z" />
    <glyph glyph-name="uni026B" unicode="&#x26b;" horiz-adv-x="290" 
d="M272 432l22 -4q-11 -57 -32.5 -79.5t-63.5 -22.5q-7 0 -13 1v-226q0 -46 12.5 -59t64.5 -13v-29h-230v29q47 0 58.5 13.5t11.5 58.5v254q-12 7 -27 7q-47 0 -60 -50l-22 4q8 48 34 74.5t59 26.5q6 0 16 -2v188q0 28 -10 35.5t-32 7.5l-32 -2v27l132 35h25v-318
q14 -7 31 -7q40 0 56 51z" />
    <glyph glyph-name="uni026C" unicode="&#x26c;" horiz-adv-x="318" 
d="M291 29v-29h-230v29q47 0 58.5 13.5t11.5 58.5v133q-62 0 -99.5 30t-37.5 84q0 51 31.5 82t77.5 31q16 0 28 -4v146q0 28 -10 35.5t-32 7.5l-32 -2v27l132 35h25v-414q50 17 100 65l15 -14q-1 -2 -7.5 -10.5l-8.5 -11l-8.5 -10.5l-9.5 -11.5t-10 -10.5t-11.5 -10.5
l-12 -9t-14.5 -9l-15.5 -7.5t-17.5 -7v-145q0 -46 12.5 -59t64.5 -13zM50 361q0 -71 81 -78v146q-10 2 -17 2q-28 0 -46 -19.5t-18 -50.5z" />
    <glyph glyph-name="uni026D" unicode="&#x26d;" horiz-adv-x="248" 
d="M80 -2v605q0 28 -10 35.5t-32 7.5l-32 -2v27l132 35h25v-768q0 -70 11 -99.5t42 -29.5q22 0 46 35t48 35q20 0 32 -11.5t12 -30.5q0 -33 -29 -52.5t-78 -19.5q-88 0 -127.5 56.5t-39.5 176.5z" />
    <glyph glyph-name="uni026E" unicode="&#x26e;" horiz-adv-x="590" 
d="M260 29v-29h-230v29q47 0 58.5 13.5t11.5 58.5v502q0 28 -10 35.5t-32 7.5l-32 -2v27l132 35h25v-233h376v-29l-191 -270q41 -6 72.5 -16.5t65 -31.5t51.5 -59.5t18 -91.5q0 -69 -43 -117t-101 -67.5t-122 -19.5q-66 0 -102.5 25t-36.5 61q0 22 11.5 35t32.5 13
q18 0 32 -16t21 -35t19 -35t28 -16q169 0 169 170q0 48 -18.5 83t-51 54t-67 28t-75.5 11v26l179 253v3h-267v-330q0 -46 12.5 -59t64.5 -13z" />
    <glyph glyph-name="uni026F" unicode="&#x26f;" horiz-adv-x="846" 
d="M663 116v264q0 30 -10 38.5t-34 8.5l-25 -2v29l126 28h26v-390q0 -26 10 -35.5t32 -9.5l27 2v-29l-125 -29h-24v81h-4q-33 -29 -53.5 -44t-51.5 -27.5t-63 -12.5q-76 0 -111 83h-4q-85 -83 -159 -83q-129 0 -129 165v227q0 30 -10 38.5t-34 8.5l-25 -2v29l126 28h26v-317
q0 -113 86 -113q42 0 115 62v266q0 30 -10 38.5t-34 8.5l-25 -2v29l126 28h26v-323q0 -60 21 -83.5t59 -23.5q56 0 125 64z" />
    <glyph glyph-name="uni0270" unicode="&#x270;" horiz-adv-x="826" 
d="M663 116v264q0 30 -10 38.5t-34 8.5l-25 -2v29l126 28h26v-610q0 -26 10 -35.5t32 -9.5l27 2v-29l-119 -29h-30v301h-4q-33 -29 -53.5 -44t-51.5 -27.5t-63 -12.5q-76 0 -111 83h-4q-85 -83 -159 -83q-129 0 -129 165v227q0 30 -10 38.5t-34 8.5l-25 -2v29l126 28h26
v-317q0 -113 86 -113q42 0 115 62v266q0 30 -10 38.5t-34 8.5l-25 -2v29l126 28h26v-323q0 -60 21 -83.5t59 -23.5q56 0 125 64z" />
    <glyph glyph-name="uni0271" unicode="&#x271;" horiz-adv-x="835" 
d="M674 -32v340q0 113 -86 113q-42 0 -115 -62v-243q0 -55 12.5 -71t64.5 -16v-29h-237v29q51 0 64 16t13 71v198q0 60 -21 83.5t-59 23.5q-56 0 -125 -64v-260q0 -42 14.5 -55t60.5 -13v-29h-228v29q46 0 58 13t12 59v280q0 26 -10 35.5t-32 9.5l-27 -2v29l125 29h24v-81h4
q33 29 53.5 44t51.5 27.5t63 12.5q76 0 111 -83h4q85 83 159 83q129 0 129 -165v-322q0 -119 -42 -176t-130 -57q-49 0 -77.5 19.5t-28.5 52.5q0 19 12 30.5t32 11.5q24 0 49.5 -35t48.5 -35q34 0 43.5 34.5t9.5 124.5z" />
    <glyph glyph-name="uni0272" unicode="&#x272;" horiz-adv-x="574" 
d="M183 -11q-2 -114 -44 -169t-128 -55q-49 0 -77.5 19.5t-28.5 52.5q0 19 12 30.5t32 11.5q24 0 49.5 -35t48.5 -35q34 0 44 34.5t10 119.5l-1 419q0 26 -10 35t-32 9l-27 -2v29l127 29h23l-1 -81h4q49 43 83.5 63.5t77.5 20.5q134 0 134 -178v-206q0 -44 13 -58.5
t61 -14.5v-28h-231v28q50 0 62 14t12 59v181q0 81 -25.5 110t-66.5 29q-25 0 -50.5 -12t-36.5 -21t-34 -30v-369z" />
    <glyph glyph-name="uni0273" unicode="&#x273;" horiz-adv-x="563" 
d="M397 -2v284q0 81 -25.5 110t-66.5 29q-25 0 -50.5 -12t-36.5 -21t-34 -30v-257q0 -45 12.5 -59t63.5 -14v-28h-229v28q48 0 59 14t11 59v281q0 26 -10 35t-32 9l-27 -2v29l127 29h23l-1 -81h4q49 43 83.5 63.5t77.5 20.5q134 0 134 -178v-374q0 -66 11 -95t42 -29
q22 0 46 35t48 35q20 0 32 -11.5t12 -30.5q0 -33 -29 -52.5t-78 -19.5q-87 0 -127 56.5t-40 176.5z" />
    <glyph glyph-name="uni0274" unicode="&#x274;" horiz-adv-x="568" 
d="M553 473v-28q-42 0 -57 -23t-15 -71v-358h-35l-309 376h-3v-256q0 -53 13.5 -69t57.5 -16v-28h-186v28q46 0 59.5 15.5t13.5 69.5v294q-17 23 -31.5 30.5t-41.5 7.5v28h143l274 -337h4v219q0 47 -14.5 67.5t-61.5 22.5v28h189z" />
    <glyph glyph-name="uni0275" unicode="&#x275;" horiz-adv-x="514" 
d="M258 485q103 0 162.5 -64t59.5 -175q0 -123 -61 -189.5t-161 -66.5q-106 0 -165 65.5t-59 186.5q0 109 61.5 176t162.5 67zM127 227q4 -102 38.5 -150t96.5 -47q62 0 93 44t32 153h-260zM254 447q-56 0 -90.5 -46.5t-36.5 -134.5h260q-5 84 -38.5 132.5t-94.5 48.5z" />
    <glyph glyph-name="uni0276" unicode="&#x276;" horiz-adv-x="732" 
d="M700 141l-23 -141h-327q-46 -8 -76 -8q-118 0 -179 64.5t-61 181.5q0 113 62 179t178 66q39 0 77 -10h317l9 -120h-31q-8 54 -32 69.5t-95 15.5h-90v-181h69q53 0 69.5 14t16.5 59h28v-173h-28q0 43 -15.5 54t-70.5 11h-69v-186h76q62 0 91.5 9t43.5 28.5t30 67.5h30z
M274 28q42 0 57 12t15 54v286q0 40 -15 52.5t-58 12.5q-76 0 -109.5 -50.5t-33.5 -152.5q0 -109 31 -161.5t113 -52.5z" />
    <glyph glyph-name="uni0277" unicode="&#x277;" horiz-adv-x="672" 
d="M639 198q0 -83 -51 -142.5t-131 -59.5q-75 0 -118 93h-5q-36 -93 -122 -93q-78 0 -128.5 59.5t-50.5 142.5q0 142 87.5 215t216.5 73q58 0 110.5 -17t96 -50.5t69.5 -90.5t26 -130zM546 218q0 121 -58.5 176.5t-150.5 55.5q-94 0 -152.5 -54t-58.5 -175q0 -74 23 -128
t77 -54q58 0 85 73q0 2 -7.5 30t-15.5 65.5t-8 63.5q0 21 16.5 32t39.5 11t39 -11t16 -32q0 -25 -6.5 -62.5t-13 -65.5t-6.5 -31q22 -73 80 -73q29 0 49.5 16.5t31 44t15.5 57t5 61.5z" />
    <glyph glyph-name="uni0278" unicode="&#x278;" horiz-adv-x="660" 
d="M447 -191v-29h-230v29q47 0 58.5 13.5t11.5 58.5v112q-128 7 -190.5 68.5t-62.5 169.5q0 104 63.5 172.5t189.5 76.5v123q0 28 -10 35.5t-32 7.5l-32 -2v27l132 35h25v-226q127 -7 191.5 -68t64.5 -163q0 -109 -64.5 -179t-191.5 -77v-112q0 -46 12.5 -59t64.5 -13z
M532 236q0 84 -41.5 142.5t-120.5 66.5v-417q87 7 124.5 58.5t37.5 149.5zM128 248q0 -203 159 -219v417q-79 -8 -119 -61t-40 -137z" />
    <glyph glyph-name="uni0279" unicode="&#x279;" horiz-adv-x="380" 
d="M197 -9v103h-3q-42 -61 -68.5 -85t-60.5 -24q-58 0 -58 56q0 27 13 40.5t31 13.5q19 0 40.5 -17t24.5 -17q30 0 79 82v228q0 46 -18 59.5t-76 13.5v29h250v-29q-48 0 -60.5 -12.5t-12.5 -55.5v-275q0 -17 0.5 -24t4 -15.5t11 -11.5t20.5 -3l31 2v-28l-124 -30h-24z" />
    <glyph glyph-name="uni027A" unicode="&#x27a;" horiz-adv-x="374" 
d="M197 -9v103h-3q-42 -61 -68.5 -85t-60.5 -24q-58 0 -58 56q0 27 13 40.5t31 13.5q19 0 40.5 -17t24.5 -17q30 0 79 82v452q0 32 -7.5 41.5t-32.5 9.5l-34 -2v27l130 35h27v-605q0 -17 0.5 -24t4 -15.5t11 -11.5t20.5 -3l31 2v-28l-124 -30h-24z" />
    <glyph glyph-name="uni027B" unicode="&#x27b;" horiz-adv-x="375" 
d="M197 -2v96h-3q-42 -61 -68.5 -85t-60.5 -24q-58 0 -58 56q0 27 13 40.5t31 13.5q19 0 40.5 -17t24.5 -17q30 0 79 82v228q0 46 -18 59.5t-76 13.5v29h250v-29q-48 0 -60.5 -12.5t-12.5 -55.5v-432q0 -72 11.5 -103.5t43.5 -31.5q22 0 46 35t48 35q20 0 32 -11.5t12 -30.5
q0 -33 -29 -52.5t-78 -19.5q-88 0 -127.5 56.5t-39.5 176.5z" />
    <glyph glyph-name="uni027C" unicode="&#x27c;" horiz-adv-x="378" 
d="M181 482v-103h3q42 61 68.5 85t60.5 24q58 0 58 -56q0 -27 -13 -40.5t-31 -13.5q-19 0 -40.5 17t-24.5 17q-30 0 -79 -82v-448q0 -46 18 -59.5t76 -13.5v-29h-250v29q48 0 60.5 12.5t12.5 55.5v495q0 17 -0.5 24.5t-4 15.5t-11 11t-20.5 3l-31 -2v28l124 30h24z" />
    <glyph glyph-name="uni027D" unicode="&#x27d;" horiz-adv-x="373" 
d="M95 -2v374q0 17 -0.5 24.5t-4 15.5t-11 11t-20.5 3l-31 -2v28l124 30h24v-103h3q42 61 68.5 85t60.5 24q58 0 58 -56q0 -27 -13 -40.5t-31 -13.5q-19 0 -40.5 17t-24.5 17q-30 0 -79 -82v-362q0 -90 9.5 -124.5t43.5 -34.5q22 0 46 35t48 35q20 0 32 -11.5t12 -30.5
q0 -33 -29 -52.5t-78 -19.5q-88 0 -127.5 56.5t-39.5 176.5z" />
    <glyph glyph-name="uni027E" unicode="&#x27e;" horiz-adv-x="371" 
d="M95 258q0 100 41 161.5t133 61.5q39 0 67 -15t28 -42q0 -20 -12 -30.5t-28 -10.5q-23 0 -48.5 31.5t-43.5 31.5q-19 0 -30 -9.5t-16 -34.5t-6.5 -50.5t-1.5 -73.5v-176q0 -46 18 -59.5t76 -13.5v-29h-250v29q48 0 60.5 12.5t12.5 55.5v161z" />
    <glyph glyph-name="uni027F" unicode="&#x27f;" horiz-adv-x="371" 
d="M276 258v-161q0 -43 12.5 -55.5t60.5 -12.5v-29h-250v29q58 0 76 13.5t18 59.5v176q0 48 -1.5 73.5t-6.5 50.5t-16 34.5t-30 9.5q-18 0 -43.5 -31.5t-48.5 -31.5q-16 0 -28 10.5t-12 30.5q0 27 28 42t67 15q92 0 133 -61.5t41 -161.5z" />
    <glyph glyph-name="uni0280" unicode="&#x280;" horiz-adv-x="494" 
d="M423 351q0 -96 -127 -123v-4q4 -2 8.5 -5t9.5 -8t9 -9.5l11.5 -13.5l13 -15.5t16 -20.5l18 -24l22.5 -29.5l26 -34.5q17 -22 33.5 -29t45.5 -7v-28h-135l-61 88.5l-43.5 62l-27.5 38.5q-12 17 -18.5 21t-21.5 4h-17v-120q0 -46 10 -56t58 -10v-28h-221v28q44 0 57 11
t13 55v300q0 31 -12 42t-52 11v26h196q189 0 189 -122zM185 434v-188l20 -1q67 3 100.5 27.5t33.5 78.5q0 48 -27.5 67t-85.5 19q-23 0 -41 -3z" />
    <glyph glyph-name="uni0281" unicode="&#x281;" horiz-adv-x="494" 
d="M423 122q0 -122 -189 -122h-196v26q40 0 52 11t12 42v300q0 44 -13 55t-57 11v28h221v-28q-48 0 -58 -10t-10 -56v-120h17q15 0 21.5 4t18.5 21l27.5 38.5l43.5 62l61 88.5h135v-28q-29 0 -45.5 -7t-33.5 -29l-26 -34.5l-22.5 -29.5l-18 -24t-16 -20.5l-13 -15.5
l-11.5 -13.5t-9 -9.5t-9.5 -8t-8.5 -5v-4q127 -27 127 -123zM185 227v-188q18 -3 41 -3q58 0 85.5 19t27.5 67q0 54 -33.5 78.5t-100.5 27.5z" />
    <glyph glyph-name="uni0282" unicode="&#x282;" horiz-adv-x="395" 
d="M39 164h26q16 -76 46.5 -107t86.5 -31q86 0 86 66q0 35 -21 56.5t-91 55.5q-72 37 -102 69.5t-30 85.5q0 60 43 93t110 33q51 0 105 -26h1l17 21h20l3 -153h-27q-16 69 -44 96.5t-76 27.5q-36 0 -58.5 -17t-22.5 -49q0 -28 25.5 -50.5t91.5 -56.5q75 -40 107.5 -73.5
t32.5 -85.5q0 -66 -47 -98t-121 -32q-52 0 -110 28h-4v-85q0 -63 17 -91t42 -28q12 0 20.5 10.5t13.5 23t16 23t26 10.5q33 0 33 -35q0 -29 -24 -49t-65 -20q-68 0 -94.5 47t-28.5 129z" />
    <glyph glyph-name="uni0283" unicode="&#x283;" horiz-adv-x="253" 
d="M85 431q0 90 6.5 132.5t25.5 76.5q22 37 52.5 55t80.5 18t81 -18.5t31 -51.5q0 -21 -11.5 -32t-29.5 -11q-25 0 -52.5 38t-52.5 38q-27 0 -37.5 -25t-10.5 -89v-574q0 -50 -6 -86t-22 -69t-48 -50t-80 -17q-52 0 -84 19t-32 51q0 43 39 43q16 0 28.5 -11.5t19.5 -26
t20 -26t31 -11.5q32 0 41.5 24t9.5 89v514z" />
    <glyph glyph-name="uni0284" unicode="&#x284;" horiz-adv-x="286" 
d="M100 31v410q0 42 3 75t14 69t29 59.5t51 39t77 15.5q35 0 65.5 -13.5t30.5 -43.5q0 -16 -12.5 -27.5t-27.5 -11.5q-22 0 -47 30.5t-45 30.5q-52 0 -52 -123v-510h79v-31h-79q0 -47 -9 -86.5t-28 -73.5t-54 -53.5t-83 -19.5q-39 0 -67 14.5t-28 41.5q0 15 11.5 27.5
t29.5 12.5q23 0 48 -31t43 -31t29 8.5t15.5 30.5t5.5 41.5t1 59.5v59h-78v31h78z" />
    <glyph glyph-name="uni0285" unicode="&#x285;" horiz-adv-x="361" 
d="M278 201v-284q0 -65 9.5 -89t41.5 -24q18 0 31 11.5t20 26t19.5 26t28.5 11.5q39 0 39 -43q0 -32 -32 -51t-84 -19q-48 0 -80 17t-48 50t-22 69t-6 86v344q0 64 -10.5 89t-37.5 25q-26 0 -55 -36t-50 -36q-35 0 -35 39q0 31 29 50.5t77 19.5q50 0 80.5 -18t52.5 -55
q19 -34 25.5 -76.5t6.5 -132.5z" />
    <glyph glyph-name="uni0286" unicode="&#x286;" horiz-adv-x="253" 
d="M321 600q-25 0 -52.5 38t-52.5 38q-27 0 -37.5 -25t-10.5 -89v-583q0 -22 -1 -28q53 -22 92 -61l-22 -26q-33 29 -73 46q-9 -67 -47.5 -102t-94.5 -35q-51 0 -80.5 25t-29.5 70q0 54 41 80.5t102 26.5q16 0 30 -2v458q0 90 6.5 132.5t25.5 76.5q22 37 52.5 55t80.5 18
t81 -18.5t31 -51.5q0 -21 -11.5 -32t-29.5 -11zM85 -64q-18 3 -34 3q-42 0 -69.5 -17t-27.5 -51q0 -57 64 -57q40 0 53.5 28.5t13.5 93.5z" />
    <glyph glyph-name="uni0287" unicode="&#x287;" horiz-adv-x="315" 
d="M22 382l-19 16q24 34 36 47.5t34.5 25t53.5 11.5q51 0 73.5 -29.5t22.5 -96.5v-315h55v-23q-35 -22 -60.5 -57t-52.5 -99h-26l1 137h-113v42h113v287q0 55 -9.5 75t-38.5 20q-22 0 -35.5 -8.5t-34.5 -32.5z" />
    <glyph glyph-name="uni0288" unicode="&#x288;" horiz-adv-x="309" 
d="M96 -2v433h-55v23q35 22 60.5 57t52.5 99h26l-1 -137h113v-42h-113v-463q0 -90 9.5 -124.5t43.5 -34.5q22 0 46 35t48 35q20 0 32 -11.5t12 -30.5q0 -33 -29 -52.5t-78 -19.5q-88 0 -127.5 56.5t-39.5 176.5z" />
    <glyph glyph-name="uni0289" unicode="&#x289;" horiz-adv-x="580" 
d="M545 45v-27l-127 -23h-22v77h-5q-43 -42 -80.5 -62t-83.5 -20q-65 0 -98 42.5t-33 140.5v79h-68v34h68v90q0 39 -12.5 48.5t-55.5 10.5v28l129 15h22v-192h213v91q0 38 -15.5 48t-65.5 10v28l140 15h24v-192h70v-34h-70v-141q0 -43 11.5 -54.5t48.5 -11.5h10zM269 54
q35 0 61 14.5t62 45.5v138h-213v-66q0 -132 90 -132z" />
    <glyph glyph-name="uni028A" unicode="&#x28a;" horiz-adv-x="548" 
d="M273 24q140 0 140 168q0 84 -19.5 142t-65.5 124l6 15h162v-28q-88 -3 -88 -27q0 -9 12 -24q86 -106 86 -201q0 -93 -64.5 -149.5t-169.5 -56.5q-104 0 -167 55.5t-63 145.5q0 98 88 206q12 15 12 24q0 24 -88 27v28h162l6 -15q-46 -68 -66.5 -125t-20.5 -141
q0 -168 138 -168z" />
    <glyph glyph-name="uni028B" unicode="&#x28b;" horiz-adv-x="530" 
d="M484 278q0 -132 -60 -210t-165 -78q-84 0 -126 42.5t-42 140.5v203q0 39 -12.5 48.5t-55.5 10.5v28l129 15h22v-279q0 -82 25.5 -116t74.5 -34q166 0 166 182q0 45 -14.5 82t-31.5 56.5t-31.5 40.5t-14.5 37q0 15 9.5 25.5t27.5 10.5q28 0 49 -23t31 -58t14.5 -66
t4.5 -58z" />
    <glyph glyph-name="uni028C" unicode="&#x28c;" horiz-adv-x="495" 
d="M-10 0v29q29 0 44.5 13.5t30.5 52.5l158 384h48l149 -377q20 -47 34.5 -60t46.5 -13v-29h-211v29q52 0 52 25q0 16 -10 39l-85 223l-19 60h-6l-21 -61l-86 -226q0 -1 -2 -6.5t-3.5 -12.5t-1.5 -14q0 -27 57 -27v-29h-175z" />
    <glyph glyph-name="uni028D" unicode="&#x28d;" horiz-adv-x="764" 
d="M-5 0v29q29 0 44 13.5t30 52.5l149 384h48l106 -291h4l117 291h46l150 -377q19 -46 35.5 -59.5t49.5 -13.5v-29h-215v29q53 0 53 25q0 12 -11 39l-87 221l-18 58h-7l-21 -58l-72 -182l11 -30q17 -47 33 -60t50 -13v-29h-209v29q50 0 50 25q0 14 -9 41l-81 219l-18 58h-6
l-20 -58l-79 -224q-6 -30 -6 -36q0 -25 56 -25v-29h-173z" />
    <glyph glyph-name="uni028E" unicode="&#x28e;" horiz-adv-x="492" 
d="M-3 0v29q29 0 43.5 12.5t25.5 43.5l156 410q42 110 83.5 154.5t102.5 44.5q74 0 74 -52q0 -43 -47 -43q-19 0 -44.5 11t-36.5 11q-22 0 -55.5 -63.5t-33.5 -89.5q0 -14 30 -82l147 -321q16 -36 60 -36v-29h-214v30q32 0 44.5 6.5t12.5 20.5q0 10 -14 43l-98 220l-14 52
h-7l-96 -293q-5 -20 -5 -25q0 -25 56 -25v-29h-170z" />
    <glyph glyph-name="uni028F" unicode="&#x28f;" horiz-adv-x="454" 
d="M470 473v-27q-31 0 -45 -12t-44 -58l-106 -176v-99q0 -47 13 -60t60 -13v-28h-228v28q49 0 60.5 12.5t11.5 60.5v91l-108 164q-42 63 -57 76.5t-42 13.5v27h202v-27q-30 0 -40 -4.5t-10 -15.5q0 -14 12 -30l69 -102l33 -60h3l100 164q9 18 9 28q0 11 -9.5 15.5t-37.5 4.5
v27h154z" />
    <glyph glyph-name="uni0290" unicode="&#x290;" horiz-adv-x="458" 
d="M425 160l-10 -160v-68q0 -63 17 -91t42 -28q12 0 20.5 10.5t13.5 23t16 23t26 10.5q33 0 33 -35q0 -29 -24 -49t-65 -20q-123 0 -123 175v49h-340v29l281 399v3h-135q-52 0 -72 -24.5t-27 -80.5h-31l5 147h369v-29l-281 -400v-3h125q63 0 87.5 24t39.5 95h33z" />
    <glyph glyph-name="uni0291" unicode="&#x291;" horiz-adv-x="458" 
d="M140 44v-3h73q73 123 156 123q38 0 58.5 -19t20.5 -49q0 -96 -165 -96h-49q-18 -31 -80 -156l-33 15q52 109 71 141h-161v29l281 399v3h-135q-52 0 -72 -24.5t-27 -80.5h-31l5 147h369v-29zM255 41h21q32 0 46 0.5t38.5 5t35 16t10.5 30.5q0 17 -11 26.5t-28 9.5
q-64 0 -112 -88z" />
    <glyph glyph-name="uni0292" unicode="&#x292;" horiz-adv-x="443" 
d="M124 175l179 253v3h-135q-52 0 -72 -24.5t-27 -80.5h-31l5 147h369v-29l-191 -270q41 -6 72.5 -16.5t65 -31.5t51.5 -59.5t18 -91.5q0 -69 -43 -117t-101 -67.5t-122 -19.5q-66 0 -102.5 25t-36.5 61q0 22 11.5 35t32.5 13q18 0 32 -16t21 -35t19 -35t28 -16
q169 0 169 170q0 48 -18.5 83t-51 54t-67 28t-75.5 11v26z" />
    <glyph glyph-name="uni0293" unicode="&#x293;" horiz-adv-x="443" 
d="M284 -217l84 -138l-34 -18l-88 148q-20 -2 -36 -2q-79 0 -129 29.5t-50 86.5q0 32 23.5 53.5t58.5 21.5q23 0 42 -9t40 -34t30 -38.5l34 -53.5q30 13 51.5 49.5t21.5 95.5q0 164 -208 175v26l179 253v3h-135q-52 0 -72 -24.5t-27 -80.5h-31l5 147h369v-29l-191 -270
q41 -6 72 -16.5t63.5 -31t50 -59t17.5 -91.5q0 -68 -36 -118.5t-104 -74.5zM225 -182q-60 109 -113 109q-17 0 -28 -10t-11 -30q0 -36 35.5 -53.5t94.5 -17.5q8 0 22 2z" />
    <glyph glyph-name="uni0294" unicode="&#x294;" horiz-adv-x="383" 
d="M183 309v-180q0 -67 13.5 -83.5t73.5 -16.5v-29h-245v29q53 0 64 16.5t11 83.5v184l8 8q33 5 61.5 17t58 35.5t47 65.5t17.5 99q0 78 -23.5 111t-81.5 33q-40 0 -57.5 -18.5t-17.5 -62.5q0 -46 -44 -46q-17 0 -29.5 12.5t-12.5 35.5q0 44 49 77t127 33q91 0 134.5 -48
t43.5 -132q0 -174 -197 -224z" />
    <glyph glyph-name="uni0295" unicode="&#x295;" horiz-adv-x="383" 
d="M200 129v180q-36 9 -63.5 20.5t-61.5 35.5t-53 65.5t-19 97.5q0 82 52.5 133t144.5 51q73 0 115 -32t42 -77q0 -23 -12.5 -35.5t-29.5 -12.5q-44 0 -44 46q0 44 -17 62.5t-54 18.5q-58 0 -83.5 -35.5t-25.5 -113.5q0 -183 184 -212l8 -8v-184q0 -67 11 -83.5t64 -16.5
v-29h-245v29q60 0 73.5 16.5t13.5 83.5z" />
    <glyph glyph-name="uni0296" unicode="&#x296;" horiz-adv-x="408" 
d="M183 706v-316q197 -50 197 -224q0 -82 -50 -130.5t-142 -48.5q-77 0 -119.5 32t-42.5 77q0 23 12.5 35.5t29.5 12.5q44 0 44 -46q0 -45 17 -63t57 -18q58 0 82 33t24 111q0 57 -17.5 99t-47 65.5t-58 35.5t-61.5 17l-8 8v217q0 28 -10 35.5t-32 7.5l-32 -2v27l132 35h25z
" />
    <glyph glyph-name="uni0297" unicode="&#x297;" horiz-adv-x="437" 
d="M409 -27l19 -14q-33 -70 -76.5 -107t-117.5 -37q-92 0 -146.5 91t-54.5 235q0 161 60 252.5t167 91.5q68 0 110 -33t42 -78t-42 -45q-25 0 -39 18.5t-19.5 40t-22.5 40t-46 18.5q-61 0 -95.5 -73.5t-34.5 -206.5q0 -130 38.5 -205t113.5 -75q46 0 77 20t67 67z" />
    <glyph glyph-name="uni0298" unicode="&#x298;" horiz-adv-x="736" 
d="M431 339q0 -27 -18.5 -46t-45.5 -19q-26 0 -45.5 19t-19.5 46t19 45.5t46 18.5q26 0 45 -18.5t19 -45.5zM704 338q0 -152 -92.5 -254t-246.5 -102q-139 0 -236 99.5t-97 257.5q0 159 95 257.5t245 98.5q149 0 240.5 -101.5t91.5 -255.5zM611 341q0 139 -67 231t-179 92
q-104 0 -172 -86t-68 -237q0 -141 64 -232t179 -91q108 0 175.5 92t67.5 231z" />
    <glyph glyph-name="uni0299" unicode="&#x299;" horiz-adv-x="485" 
d="M316 253v-3q56 -9 96 -39t40 -85q0 -61 -50.5 -93.5t-140.5 -32.5h-229v28q44 0 57 11.5t13 52.5v290q0 44 -10.5 53.5t-58.5 9.5v28h199q194 0 194 -115q0 -44 -28 -68t-82 -37zM185 262h38q67 0 90.5 22t23.5 71q0 45 -26 63.5t-95 18.5q-16 0 -31 -1v-174zM185 228
v-190q18 -3 41 -3t33.5 0.5t29.5 2.5t28.5 7.5t20.5 15t15.5 25.5t4.5 38q0 104 -134 104h-39z" />
    <glyph glyph-name="uni029A" unicode="&#x29a;" horiz-adv-x="500" 
d="M466 239q0 -114 -65.5 -182t-177.5 -68q-82 0 -135 31.5t-53 101.5q0 55 36.5 89t81.5 42v4q-22 8 -36.5 15t-33.5 20.5t-29 33.5t-10 46q0 52 52 83t130 31q106 0 173 -67.5t67 -179.5zM234 30q73 0 111.5 58t38.5 152t-40.5 153t-115.5 59q-102 0 -102 -81
q0 -54 31.5 -74.5t88.5 -20.5h33v-47h-34q-65 0 -93.5 -23t-28.5 -75q0 -48 31.5 -74.5t79.5 -26.5z" />
    <glyph glyph-name="uni029B" unicode="&#x29b;" horiz-adv-x="536" 
d="M516 226v-26q-31 0 -41 -10.5t-10 -45.5v-104q-47 -26 -86 -37.5t-96 -11.5q-122 0 -185 61.5t-63 182.5q0 123 69 186t182 63q34 0 60.5 -7t41 -14t18.5 -7q15 0 15 22q0 188 127 188q41 0 62.5 -18.5t21.5 -48.5q0 -18 -9 -27.5t-23 -9.5q-15 0 -26 10.5t-16 23
t-13.5 23t-20.5 10.5q-59 0 -59 -125v-190h-29q-23 133 -149 133q-159 0 -159 -202q0 -218 160 -218q34 0 54 7t44 26v78q0 39 -12 50.5t-53 11.5v26h195z" />
    <glyph glyph-name="uni029C" unicode="&#x29c;" horiz-adv-x="599" 
d="M185 372v-111h231v111q0 46 -12 60t-60 14v27h224v-27q-49 0 -60 -14t-11 -60v-272q0 -48 11.5 -60t59.5 -12v-28h-224v28q49 0 60.5 12t11.5 60v128h-231v-128q0 -48 11.5 -60t60.5 -12v-28h-224v28q47 0 58 12t11 60v272q0 46 -11 60t-58 14v27h224v-27q-50 0 -61 -14
t-11 -60z" />
    <glyph glyph-name="uni029D" unicode="&#x29d;" horiz-adv-x="263" 
d="M183 482v-491q0 -28 -1 -40q57 -24 92 -61l-22 -26q-37 31 -73 46q-9 -68 -48.5 -102.5t-98.5 -34.5q-45 0 -75 24.5t-30 70.5q0 52 40.5 79.5t100.5 27.5q18 0 32 -2v400q0 33 -8.5 43.5t-35.5 10.5l-30 -3v30l130 28h27zM100 -64q-18 3 -36 3q-42 0 -68.5 -18
t-26.5 -54q0 -53 63 -53q43 0 55.5 30.5t12.5 91.5zM139 693q26 0 42.5 -16.5t16.5 -39.5q0 -24 -16.5 -40.5t-42.5 -16.5q-25 0 -41.5 16.5t-16.5 40.5q0 23 16 39.5t42 16.5z" />
    <glyph glyph-name="uni029E" unicode="&#x29e;" horiz-adv-x="542" 
d="M3 473h221v-29q-39 0 -39 -12q0 -13 11 -24l157 -178h6v152q0 39 -13.5 50.5t-60.5 11.5v29h227v-29q-45 0 -57.5 -12t-12.5 -54v-500q0 -32 7.5 -41.5t32.5 -9.5l34 2v-27l-130 -35h-27v441h-6l-129 -128q-18 -18 -18 -32q0 -18 49 -18v-30h-216v30q46 0 75 18.5
t121 98.5l50 41l-176 198q-34 39 -53 48.5t-53 9.5v29z" />
    <glyph glyph-name="uni029F" unicode="&#x29f;" horiz-adv-x="440" 
d="M425 147l-22 -147h-382v28q45 0 57.5 12.5t12.5 54.5v280q0 43 -13 56.5t-57 13.5v28h229v-28q-47 0 -61.5 -13.5t-14.5 -56.5v-302q0 -23 12 -30.5t47 -7.5h23q16 0 29.5 1.5t23.5 2.5t19.5 6t15 6.5t12 10.5t9.5 11.5t8.5 15.5l7 16.5t7.5 20t8 21.5h29z" />
    <glyph glyph-name="uni02A0" unicode="&#x2a0;" horiz-adv-x="541" 
d="M441 580v-704q0 -40 12.5 -54t53.5 -14v-28h-242v28q59 0 76 15.5t17 63.5v176h-3q-39 -35 -73.5 -53t-78.5 -18q-78 0 -124 62t-46 166q0 118 64.5 191.5t161.5 73.5q53 0 99 -25v30q1 103 46 163t141 60q56 0 90.5 -19t34.5 -51q0 -44 -42 -44q-18 0 -33 12t-25 26
t-27 26t-38 12q-32 0 -47.5 -22t-16.5 -73zM358 103v263q-21 79 -100 79q-65 0 -102 -47.5t-37 -139.5q0 -193 132 -193q61 0 107 38z" />
    <glyph glyph-name="uni02A1" unicode="&#x2a1;" horiz-adv-x="393" 
d="M188 309v-85h116v-39h-116v-56q0 -67 13.5 -83.5t73.5 -16.5v-29h-245v29q53 0 64 16.5t11 83.5v56h-74v39h74v89l8 8q33 5 61.5 17t58 35.5t47 65.5t17.5 99q0 78 -23.5 111t-81.5 33q-40 0 -57.5 -18.5t-17.5 -62.5q0 -46 -44 -46q-17 0 -29.5 12.5t-12.5 35.5
q0 44 49 77t127 33q91 0 134.5 -48t43.5 -132q0 -174 -197 -224z" />
    <glyph glyph-name="uni02A2" unicode="&#x2a2;" horiz-adv-x="393" 
d="M90 185v39h115v85q-36 9 -63.5 20.5t-61.5 35.5t-53 65.5t-19 97.5q0 82 52.5 133t144.5 51q73 0 115 -32t42 -77q0 -23 -12.5 -35.5t-29.5 -12.5q-44 0 -44 46q0 44 -17 62.5t-54 18.5q-58 0 -83.5 -35.5t-25.5 -113.5q0 -183 184 -212l8 -8v-89h75v-39h-75v-56
q0 -67 11 -83.5t64 -16.5v-29h-245v29q60 0 73.5 16.5t13.5 83.5v56h-115z" />
    <glyph glyph-name="uni02A3" unicode="&#x2a3;" horiz-adv-x="830" 
d="M512 45v-4h125q63 0 87.5 24t39.5 95h33l-10 -160h-355l-46 -6h-23v70h-4q-80 -72 -155 -72q-82 0 -126.5 63.5t-44.5 163.5q0 120 66 193t164 73q53 0 97 -24v131q0 34 -7.5 43.5t-36.5 9.5l-26 -2v28l126 35h27v-233h350v-29zM360 101v264q-7 34 -31.5 57t-67.5 23
q-65 0 -103 -47.5t-38 -139.5q0 -101 33 -147.5t98 -46.5q55 0 109 37zM443 88h5l236 339v4h-241v-343z" />
    <glyph glyph-name="uni02A4" unicode="&#x2a4;" horiz-adv-x="838" 
d="M520 175l175 253v3h-252v-324q0 -38 10.5 -50t39.5 -12h21v-27l-128 -23h-23v69h-4q-80 -72 -155 -72q-82 0 -126.5 63.5t-44.5 163.5q0 120 66 193t164 73q53 0 97 -24v131q0 34 -7.5 43.5t-36.5 9.5l-26 -2v28l126 35h27v-233h361v-29l-187 -270q41 -6 72 -16.5
t63.5 -31t50 -59t17.5 -91.5q0 -69 -43 -117t-101 -68t-122 -20q-66 0 -102.5 25t-36.5 61q0 22 11.5 35t32.5 13q18 0 32 -16t21 -35t19 -35t28 -16q169 0 169 171q0 164 -208 175v26zM360 101v264q-7 34 -31.5 57t-67.5 23q-65 0 -103 -47.5t-38 -139.5q0 -101 33 -147.5
t98 -46.5q55 0 109 37z" />
    <glyph glyph-name="uni02A5" unicode="&#x2a5;" horiz-adv-x="829" 
d="M561 0h-129l-46 -6h-23v70h-4q-80 -72 -155 -72q-82 0 -126.5 63.5t-44.5 163.5q0 120 66 193t164 73q53 0 97 -24v131q0 34 -7.5 43.5t-36.5 9.5l-26 -2v28l126 35h27v-233h350v-29l-281 -399v-4h70q73 123 157 123q37 0 57.5 -18.5t20.5 -50.5q0 -95 -168 -95h-46
q-18 -31 -80 -156l-33 15q52 109 71 141zM360 101v264q-7 34 -31.5 57t-67.5 23q-65 0 -103 -47.5t-38 -139.5q0 -101 33 -147.5t98 -46.5q55 0 109 37zM443 88h5l236 339v4h-241v-343zM624 41h21q32 0 46 0.5t38.5 5t35 16t10.5 30.5q0 17 -11 26.5t-28 9.5q-64 0 -112 -88
z" />
    <glyph glyph-name="uni02A6" unicode="&#x2a6;" horiz-adv-x="614" 
d="M92 136v295h-55v23q35 22 60.5 57t52.5 99h25v-137h166q29 12 71 12q51 0 105 -26l18 21h23v-153h-27q-16 69 -44 96.5t-76 27.5q-36 0 -58.5 -17t-22.5 -49q0 -29 25.5 -51t91.5 -56q74 -39 105.5 -72t31.5 -85q0 -48 -39 -79t-93 -42.5t-121 -11.5q-40 0 -72.5 3.5
t-64.5 13t-53.5 25.5t-35 43t-13.5 63zM281 431h-106v-285q0 -121 159 -121q43 0 79 7.5t61.5 25.5t25.5 45q0 29 -20 47.5t-89 53.5q-72 36 -102 69t-30 86q0 42 22 72z" />
    <glyph glyph-name="uni02A7" unicode="&#x2a7;" horiz-adv-x="513" 
d="M345 431h-170v-287q0 -55 9.5 -75t38.5 -20q22 0 35.5 8.5t34.5 32.5l19 -16q-24 -34 -36 -47.5t-34.5 -25t-53.5 -11.5q-51 0 -73.5 29.5t-22.5 96.5v315h-55v23q35 22 60.5 57t52.5 99h26l-1 -137h170q1 114 32 167q22 37 52.5 55t80.5 18t81 -18.5t31 -51.5
q0 -21 -11.5 -32t-29.5 -11q-25 0 -52.5 38t-52.5 38q-27 0 -37.5 -25t-10.5 -89v-574q0 -50 -6 -86t-22 -69t-48 -50t-80 -17q-52 0 -84 19t-32 51q0 43 39 43q16 0 28.5 -11.5t19.5 -26t20 -26t31 -11.5q32 0 41.5 24t9.5 89v514z" />
    <glyph glyph-name="uni02A8" unicode="&#x2a8;" horiz-adv-x="687" 
d="M353 265q0 -91 44 -153q61 37 92.5 50.5t70.5 13.5q42 0 68.5 -20.5t26.5 -60.5q0 -45 -42.5 -75t-116.5 -30q-90 0 -151 55q-92 -55 -157 -55q-96 0 -96 116v325h-55v23q35 22 60.5 57t52.5 99h26l-1 -137h113v-42h-113v-287q0 -101 54 -101q40 0 95 24q-50 64 -50 159
q0 119 59.5 189t166.5 70q69 0 110.5 -30.5t41.5 -75.5t-42 -45q-25 0 -39 18t-19.5 39t-22.5 39t-46 18q-130 0 -130 -183zM559 144q-54 0 -143 -55q43 -43 108 -43q90 0 90 55q0 43 -55 43z" />
    <glyph glyph-name="uni02A9" unicode="&#x2a9;" horiz-adv-x="866" 
d="M705 -32v314q0 81 -25.5 110t-66.5 29q-25 0 -50.5 -12t-36.5 -21t-34 -30v-257q0 -45 12.5 -59t63.5 -14v-28h-229v28q48 0 59 14t11 59v288q0 25 -10 33.5t-32 8.5h-182v-312q0 -57 19.5 -73.5t82.5 -16.5v-29h-269v29q55 0 69.5 15.5t14.5 74.5v312h-76v42h76
q0 110 32 167q22 37 52.5 55t80.5 18t81 -18.5t31 -51.5q0 -21 -11.5 -32t-29.5 -11q-25 0 -52.5 38t-52.5 38q-27 0 -37.5 -25t-10.5 -89v-89h230l52 9h23l-1 -81h4q49 43 83.5 63.5t77.5 20.5q134 0 134 -178v-309q0 -119 -42 -176t-130 -57q-49 0 -77.5 19.5t-28.5 52.5
q0 19 12 30.5t32 11.5q24 0 49.5 -35t48.5 -35q34 0 43.5 34.5t9.5 124.5z" />
    <glyph glyph-name="uni02AA" unicode="&#x2aa;" horiz-adv-x="595" 
d="M163 133q0 -68 29 -88t126 -20q43 0 79 7.5t61.5 25.5t25.5 45q0 29 -20 47.5t-89 53.5q-72 36 -102 69t-30 86q0 57 44.5 91.5t108.5 34.5q51 0 105 -26l18 21h23v-153h-27q-16 69 -44 96.5t-76 27.5q-36 0 -58.5 -17t-22.5 -49q0 -29 25.5 -51t91.5 -56
q74 -39 105.5 -72t31.5 -85q0 -47 -38.5 -78.5t-92 -43t-119.5 -11.5q-238 0 -238 129v486q0 28 -10 35.5t-32 7.5l-32 -2v27l132 35h25v-573z" />
    <glyph glyph-name="uni02AB" unicode="&#x2ab;" horiz-adv-x="580" 
d="M183 706v-233h353v-29l-266 -400v-3h110q63 0 87.5 24t39.5 95h33l-10 -160h-500v29q47 0 58.5 13.5t11.5 58.5v502q0 28 -10 35.5t-32 7.5l-32 -2v27l132 35h25zM183 59h5l242 369v3h-247v-372z" />
    <glyph glyph-name="uni02AC" unicode="&#x2ac;" horiz-adv-x="599" 
d="M589 329v-24q-21 0 -32.5 -9t-21.5 -34l-106 -271h-51l-75 204h-4l-75 -204h-49l-108 267q-13 31 -23 39t-34 8v24h159v-24q-37 0 -37 -16q0 -10 8 -28l65 -157l11 -40h6l14 40l48 134l-8 20q-12 30 -22.5 38.5t-34.5 8.5v24h156v-24q-34 0 -34 -16q0 -6 6 -28l62 -157
l11 -40h6l13 40l59 160q5 18 5 24q0 17 -43 17v24h129zM589 706v-24q-21 0 -32.5 -9t-21.5 -34l-106 -271h-51l-75 204h-4l-75 -204h-49l-108 267q-13 31 -23 39t-34 8v24h159v-24q-37 0 -37 -16q0 -10 8 -28l65 -157l11 -40h6l14 40l48 134l-8 20q-12 30 -22.5 38.5
t-34.5 8.5v24h156v-24q-34 0 -34 -16q0 -6 6 -28l62 -157l11 -40h6l13 40l59 160q5 17 5 24q0 17 -43 17v24h129z" />
    <glyph glyph-name="uni02AD" unicode="&#x2ad;" horiz-adv-x="479" 
d="M409 -6h-56v228h-227v-228h-56v300h339v-300zM409 357h-56v228h-227v-228h-56v300h339v-300z" />
    <glyph glyph-name="uni02AE" unicode="&#x2ae;" horiz-adv-x="595" 
d="M140 350q-2 100 -51 100q-17 0 -38.5 -30.5t-42.5 -30.5q-15 0 -28 11t-13 28q0 26 25 41t62 15q169 0 169 -216v-65q0 -73 18 -112t71 -39q55 0 120 62v266q0 30 -10 38.5t-34 8.5l-25 -2v29l126 28h26v-621q0 -42 49 -42l29 1v-28l-134 -21h-27v299h-3
q-85 -82 -158 -82q-131 0 -131 185v177z" />
    <glyph glyph-name="uni02AF" unicode="&#x2af;" horiz-adv-x="600" 
d="M432 -2v72h-3q-85 -82 -158 -82q-131 0 -131 185v177q-2 100 -51 100q-17 0 -38.5 -30.5t-42.5 -30.5q-15 0 -28 11t-13 28q0 26 25 41t62 15q169 0 169 -216v-65q0 -73 18 -112t71 -39q55 0 120 62v266q0 30 -10 38.5t-34 8.5l-25 -2v29l126 28h26v-544q0 -70 11 -99.5
t42 -29.5q22 0 46 35t48 35q20 0 32 -11.5t12 -30.5q0 -33 -29 -52.5t-78 -19.5q-88 0 -127.5 56.5t-39.5 176.5z" />
    <glyph glyph-name="uni02B0" unicode="&#x2b0;" horiz-adv-x="488" 
d="M157 541v-208q0 -31 10.5 -42t48.5 -11v-28h-188v28q32 0 44 9.5t12 41.5v398q0 19 -9.5 25t-28.5 6l-23 -2v29l102 17h32v-222h4q66 61 125 61q66 0 92.5 -42.5t26.5 -101.5v-165q0 -30 12.5 -42t46.5 -12v-28h-190v28q38 0 48 11t10 42v130q0 61 -15 93t-63 32
q-43 0 -97 -47z" />
    <glyph glyph-name="uni02B1" unicode="&#x2b1;" horiz-adv-x="488" 
d="M84 643q0 80 31 129q42 63 137 63q48 0 77.5 -15.5t29.5 -44.5q0 -36 -37 -36q-18 0 -33.5 16l-32.5 32t-40 16q-59 0 -59 -74v-147h4q66 61 125 61q66 0 92.5 -42.5t26.5 -101.5v-165q0 -30 12.5 -42t46.5 -12v-28h-190v28q38 0 48 11t10 42v130q0 61 -15 93t-63 32
q-43 0 -97 -47v-208q0 -31 10.5 -42t48.5 -11v-28h-188v28q32 0 44 9.5t12 41.5v312z" />
    <glyph glyph-name="uni02B2" unicode="&#x2b2;" horiz-adv-x="222" 
d="M160 640v-394q0 -94 -34 -138t-108 -44q-41 0 -65 17t-24 45q0 17 11 27t28 10q20 0 41 -30t40 -30q25 0 31.5 26t6.5 97v329q0 28 -6.5 35.5t-29.5 7.5l-25 -2v30l101 14h33zM120 803q22 0 36.5 -14t14.5 -35q0 -19 -14.5 -33.5t-36.5 -14.5q-21 0 -35.5 14.5
t-14.5 33.5q0 21 14 35t36 14z" />
    <glyph glyph-name="uni02B3" unicode="&#x2b3;" horiz-adv-x="325" 
d="M156 640v-79h4q34 46 56.5 65.5t48.5 19.5q48 0 48 -46q0 -25 -11 -37.5t-25 -12.5q-16 0 -35 15l-20 15q-10 0 -29.5 -19.5t-35.5 -45.5v-181q0 -34 14 -44t60 -10v-28h-203v28q36 0 46.5 10t10.5 43v216q0 16 -0.5 22t-3 14t-8.5 10.5t-17 2.5l-27 -2v29l98 15h29z" />
    <glyph glyph-name="uni02B4" unicode="&#x2b4;" horiz-adv-x="325" 
d="M185 245v79h-4q-34 -46 -56.5 -65.5t-48.5 -19.5q-48 0 -48 46q0 25 11 37.5t25 12.5q16 0 36 -15l19 -15q11 0 30 19.5t35 45.5v181q0 34 -14 44t-60 10v28h203v-28q-36 0 -46.5 -10t-10.5 -43v-216q0 -16 0.5 -22t3 -14t8.5 -10.5t17 -2.5l27 2v-29l-98 -15h-29z" />
    <glyph glyph-name="uni02B5" unicode="&#x2b5;" horiz-adv-x="325" 
d="M256 552v-320q1 -44 7 -60t27 -16q27 0 49.5 20t34.5 20q27 0 27 -27q0 -45 -87 -45q-35 0 -59.5 11.5t-38 28t-20.5 45.5t-9 53t-2 62h-4q-34 -46 -56.5 -65.5t-48.5 -19.5q-48 0 -48 46q0 25 11 37.5t25 12.5q16 0 36 -15l19 -15q11 0 30 19.5t35 45.5v181q0 34 -14 44
t-60 10v28h208v-28q-37 0 -49.5 -10.5t-12.5 -42.5z" />
    <glyph glyph-name="uni02B6" unicode="&#x2b6;" horiz-adv-x="443" 
d="M372 350q0 -98 -138 -98h-200v27q33 0 42.5 8.5t9.5 33.5v232q0 36 -10 44.5t-45 8.5v27h190v-27q-40 0 -51 -9t-11 -44v-90h18q16 0 21.5 3t15.5 17q7 10 40 52.5l72 97.5h108v-27q-23 0 -36.5 -5.5t-27.5 -23.5q-49 -64 -73 -89t-41 -34v-3q116 -26 116 -101zM159 432
v-143q15 -3 40 -3q50 0 71.5 14t21.5 57q0 39 -27.5 56t-83.5 19h-22z" />
    <glyph glyph-name="uni02B7" unicode="&#x2b7;" horiz-adv-x="653" 
d="M652 633v-28q-24 0 -37.5 -10t-24.5 -39l-121 -309h-51l-86 233h-4l-93 -233h-49l-123 305q-15 34 -26.5 43.5t-38.5 9.5v28h174v-28q-42 0 -42 -18q0 -9 9 -32l74 -179l13 -46h7l16 46l61 153l-9 23q-13 34 -25 43.5t-40 9.5v28h172v-28q-39 0 -39 -18q0 -9 7 -32
l70 -179l13 -46h7l15 46l67 183q5 17 5 27q0 19 -48 19v28h147z" />
    <glyph glyph-name="uni02B8" unicode="&#x2b8;" horiz-adv-x="427" 
d="M425 633v-29q-26 0 -38 -10.5t-21 -34.5l-128 -318q-35 -88 -69.5 -123.5t-86.5 -35.5q-63 0 -63 45q0 39 41 39q17 0 39 -11t29 -11q15 0 41.5 49t26.5 64q0 2 -3 10l-7.5 19.5l-6.5 16.5l-127 273q-10 28 -49 28v29h180v-29q-28 0 -37.5 -4.5t-9.5 -16.5q0 -2 12 -35
l76 -167l10 -46h9l79 227q5 15 5 23q0 19 -49 19v29h147z" />
    <glyph glyph-name="uni02B9" unicode="&#x2b9;" horiz-adv-x="296" 
d="M66 414l70 236q5 16 10 26t16.5 18.5t27.5 8.5q19 0 28.5 -12.5t9.5 -30.5q0 -12 -15 -44l-113 -217z" />
    <glyph glyph-name="uni02BA" unicode="&#x2ba;" horiz-adv-x="456" 
d="M66 414l70 236q5 16 10 26t16.5 18.5t27.5 8.5q19 0 28.5 -12.5t9.5 -30.5q0 -12 -15 -44l-113 -217zM226 414l70 236q5 16 10 26t16.5 18.5t27.5 8.5q19 0 28.5 -12.5t9.5 -30.5q0 -12 -15 -44l-113 -217z" />
    <glyph glyph-name="uni02BB" unicode="&#x2bb;" horiz-adv-x="245" 
d="M182 710l12 -25q-17 -7 -28 -14t-25 -20.5t-21.5 -34.5t-7.5 -49q13 6 30 6q28 0 42 -15.5t14 -38.5q0 -26 -17 -42.5t-46 -16.5q-77 0 -77 90q0 113 124 160z" />
    <glyph glyph-name="uni02BC" unicode="&#x2bc;" horiz-adv-x="244" 
d="M63 459l-12 25q24 10 39 20.5t29.5 36t14.5 61.5q-14 -6 -31 -6q-28 0 -41.5 15t-13.5 39q0 26 16.5 43t45.5 17q37 0 56.5 -23.5t19.5 -64.5q0 -39 -11.5 -68.5t-36 -49t-37 -26.5t-38.5 -19z" />
    <glyph glyph-name="uni02BD" unicode="&#x2bd;" horiz-adv-x="244" 
d="M193 484l-12 -25q-26 12 -38.5 19t-37 26.5t-36 49t-11.5 68.5q0 41 19.5 64.5t56.5 23.5q29 0 45.5 -17t16.5 -43q0 -24 -13.5 -39t-41.5 -15q-17 0 -31 6q0 -51 23 -76.5t60 -41.5z" />
    <glyph glyph-name="uni02BE" unicode="&#x2be;" horiz-adv-x="203" 
d="M30 702h36q51 0 81.5 -27.5t30.5 -77.5t-30.5 -78.5t-81.5 -28.5h-36v50h36q57 0 57 57q0 55 -57 55h-36v50z" />
    <glyph glyph-name="uni02BF" unicode="&#x2bf;" horiz-adv-x="203" 
d="M137 702h36v-50h-36q-57 0 -57 -55q0 -57 57 -57h36v-50h-36q-51 0 -81.5 28.5t-30.5 78.5t30.5 77.5t81.5 27.5z" />
    <glyph glyph-name="uni02C0" unicode="&#x2c0;" horiz-adv-x="364" 
d="M184 362h-74v93q55 0 97.5 28.5t42.5 98.5q0 105 -75 105q-21 0 -34 -13t-17.5 -28.5t-15 -28.5t-28.5 -13q-16 0 -26 10.5t-10 26.5q0 36 40.5 54.5t84.5 18.5q80 0 120.5 -39t40.5 -101q0 -35 -14.5 -62t-39 -43t-47 -24.5t-46.5 -12.5z" />
    <glyph glyph-name="uni02C1" unicode="&#x2c1;" horiz-adv-x="364" 
d="M254 362h-74l1 70q-24 4 -46.5 12.5t-47 24.5t-39 43t-14.5 62q0 62 40.5 101t120.5 39q44 0 84.5 -18.5t40.5 -54.5q0 -16 -10 -26.5t-26 -10.5q-18 0 -28.5 13t-15 28.5t-17.5 28.5t-34 13q-75 0 -75 -105q0 -70 42.5 -98.5t97.5 -28.5v-93z" />
    <glyph glyph-name="uni02C2" unicode="&#x2c2;" horiz-adv-x="324" 
d="M288 436l-250 151v27l125.5 76.5l124.5 75.5v-62l-175 -103l175 -105v-60z" />
    <glyph glyph-name="uni02C3" unicode="&#x2c3;" horiz-adv-x="324" 
d="M288 587l-250 -151v60l174 105l-174 103v62l250 -152v-27z" />
    <glyph glyph-name="uni02C4" unicode="&#x2c4;" horiz-adv-x="324" 
d="M328 476h-62l-103 174l-105 -174h-60l75.5 125.5l75.5 124.5h27l76.5 -124.5z" />
    <glyph glyph-name="uni02C5" unicode="&#x2c5;" horiz-adv-x="324" 
d="M328 726l-152 -250h-27l-151 250h60l105 -175l103 175h62z" />
    <glyph glyph-name="circumflex" unicode="&#x2c6;" horiz-adv-x="342" 
d="M312 521h-38l-103 98l-102 -98h-39l108 153h66z" />
    <glyph glyph-name="caron" unicode="&#x2c7;" horiz-adv-x="342" 
d="M30 678h39l102 -98l103 98h38l-108 -153h-66z" />
    <glyph glyph-name="uni02C8" unicode="&#x2c8;" horiz-adv-x="284" 
d="M163 459h-41v271h41v-271z" />
    <glyph glyph-name="uni02C9" unicode="&#x2c9;" horiz-adv-x="350" 
d="M320 555h-290v55h290v-55z" />
    <glyph glyph-name="uni02CA" unicode="&#x2ca;" horiz-adv-x="222" 
d="M30 521l70 153h93v-18l-124 -135h-39z" />
    <glyph glyph-name="uni02CB" unicode="&#x2cb;" horiz-adv-x="222" 
d="M122 674l70 -153h-39l-123 135v18h92z" />
    <glyph glyph-name="uni02CC" unicode="&#x2cc;" horiz-adv-x="284" 
d="M163 -200h-41v271h41v-271z" />
    <glyph glyph-name="uni02CD" unicode="&#x2cd;" horiz-adv-x="342" 
d="M331 -163h-320v56h320v-56z" />
    <glyph glyph-name="uni02CE" unicode="&#x2ce;" horiz-adv-x="222" 
d="M122 -36l70 -153h-39l-123 135v18h92z" />
    <glyph glyph-name="uni02CF" unicode="&#x2cf;" horiz-adv-x="223" 
d="M30 -189l70 153h93v-18l-124 -135h-39z" />
    <glyph glyph-name="uni02D0" unicode="&#x2d0;" horiz-adv-x="341" 
d="M250 471l-57 -165h-46l-56 165h159zM250 19h-159l56 165h46z" />
    <glyph glyph-name="uni02D1" unicode="&#x2d1;" horiz-adv-x="341" 
d="M250 471l-57 -165h-46l-56 165h159z" />
    <glyph glyph-name="uni02D2" unicode="&#x2d2;" horiz-adv-x="341" 
d="M73 374h47q64 0 108 -40t44 -109t-44 -108.5t-108 -39.5h-47v56h41q98 0 98 92t-98 92h-41v57z" />
    <glyph glyph-name="uni02D3" unicode="&#x2d3;" horiz-adv-x="341" 
d="M221 374h47v-57h-41q-98 0 -98 -92t98 -92h41v-56h-47q-64 0 -108 39.5t-44 108.5t44 109t108 40z" />
    <glyph glyph-name="uni02D4" unicode="&#x2d4;" horiz-adv-x="341" 
d="M287 162h-235v41h97v151h41v-151h97v-41z" />
    <glyph glyph-name="uni02D5" unicode="&#x2d5;" horiz-adv-x="341" 
d="M287 313h-97v-151h-41v151h-97v41h235v-41z" />
    <glyph glyph-name="uni02D6" unicode="&#x2d6;" horiz-adv-x="341" 
d="M269 240h-79v-80h-39v80h-79v37h79v80h39v-80h79v-37z" />
    <glyph glyph-name="uni02D7" unicode="&#x2d7;" horiz-adv-x="341" 
d="M269 240h-197v37h197v-37z" />
    <glyph glyph-name="breve" unicode="&#x2d8;" horiz-adv-x="353" 
d="M293 683h30q-8 -80 -42.5 -117t-103.5 -37q-141 0 -147 154h30q14 -55 39 -73t78 -18q52 0 75 17.5t41 73.5z" />
    <glyph glyph-name="dotaccent" unicode="&#x2d9;" horiz-adv-x="172" 
d="M142 606q0 -25 -14.5 -40t-40.5 -15q-27 0 -42 15t-15 40t15.5 39.5t41.5 14.5t40.5 -15t14.5 -39z" />
    <glyph glyph-name="ring" unicode="&#x2da;" horiz-adv-x="265" 
d="M235 629q0 -47 -28.5 -73t-74.5 -26q-44 0 -73 26.5t-29 73.5q0 44 29 71.5t73 27.5q45 0 74 -27.5t29 -72.5zM191 630q0 28 -15.5 45.5t-43.5 17.5t-43 -17.5t-15 -45.5q0 -63 58 -63q59 0 59 63z" />
    <glyph glyph-name="ogonek" unicode="&#x2db;" horiz-adv-x="277" 
d="M233 -134l14 -17q-35 -35 -61 -50t-66 -15t-65 22.5t-25 59.5q0 62 104 138h46q-25 -18 -39 -30t-28.5 -35.5t-14.5 -48.5q0 -55 50 -55q27 0 44 6.5t41 24.5z" />
    <glyph glyph-name="tilde" unicode="&#x2dc;" horiz-adv-x="381" 
d="M325 642h26q-11 -56 -37 -81t-69 -25q-28 0 -69 21.5t-64 21.5q-44 0 -55 -46h-27q8 49 35.5 77t65.5 28q30 0 71.5 -21.5t64.5 -21.5q43 0 58 47z" />
    <glyph glyph-name="hungarumlaut" unicode="&#x2dd;" horiz-adv-x="350" 
d="M30 521l65 153h92v-18l-119 -135h-38zM163 521l65 153h92v-18l-119 -135h-38z" />
    <glyph glyph-name="uni02DE" unicode="&#x2de;" horiz-adv-x="205" 
d="M-39 274v32l96 52l15 -11q-2 -12 -2 -19q0 -26 10.5 -44t31.5 -18q26 0 38.5 13.5t12.5 34.5q0 6 -2 18l23 5q5 -17 5 -35q0 -38 -24 -63.5t-66 -25.5q-37 0 -58 26t-21 65l-2 1z" />
    <glyph glyph-name="uni02DF" unicode="&#x2df;" horiz-adv-x="302" 
d="M272 703l-85 -87l83 -83l-35 -38l-85 85l-83 -85l-33 36l83 84l-87 88l37 35l85 -87l86 87z" />
    <glyph glyph-name="uni02E0" unicode="&#x2e0;" horiz-adv-x="413" 
d="M416 633v-27q-24 0 -37 -11t-24 -41l-109 -255q46 -102 46 -141q0 -34 -23 -57t-71 -23q-35 0 -50.5 18.5t-15.5 45.5q0 38 44 136l-111 270q-15 36 -28 47t-39 11v27h176v-27q-39 0 -39 -20q0 -13 8 -31l67 -165l15 -48h5l17 48l68 168q5 20 5 27q0 21 -45 21v27h141z
M194 244q-27 -61 -27 -98q0 -40 31 -40q33 0 33 37q0 17 -37 101z" />
    <glyph glyph-name="uni02E1" unicode="&#x2e1;" horiz-adv-x="244" 
d="M219 280v-28h-189v28q37 0 46 11t9 45v390q0 22 -8 28t-28 6l-22 -1v29l100 16h31v-468q0 -35 10.5 -45.5t50.5 -10.5z" />
    <glyph glyph-name="uni02E2" unicode="&#x2e2;" horiz-adv-x="337" 
d="M33 388h25q13 -62 36.5 -86.5t68.5 -24.5q75 0 75 51q0 27 -18 43.5t-75 42.5q-60 27 -85.5 54t-25.5 73q0 48 35 75t90 27q48 0 91 -24h2l14 19h20v-124h-26q-14 55 -38 76t-65 21q-62 0 -62 -51q0 -23 22.5 -40.5t75.5 -41.5q60 -29 88.5 -56.5t28.5 -73.5
q0 -55 -41.5 -80.5t-103.5 -25.5q-40 0 -92 22h-3l-18 -20h-18z" />
    <glyph glyph-name="uni02E3" unicode="&#x2e3;" horiz-adv-x="445" 
d="M424 252h-176v28q22 0 30 3t8 12q0 5 -5 15l-48 69l-18 34h-5l-66 -90q-20 -25 -20 -31q0 -12 39 -12v-28h-143v28q21 0 35.5 8t35.5 31l96 122l-86 118q-22 31 -33 38.5t-36 7.5v28h179v-27q-39 0 -39 -17q0 -6 5 -14t15.5 -23t18.5 -29l21 -42h6l36 51q31 42 31 55
q0 19 -34 19v27h138v-28q-34 0 -66 -37l-87 -108l102 -135q19 -26 32 -35.5t34 -9.5v-28z" />
    <glyph glyph-name="uni02E4" unicode="&#x2e4;" horiz-adv-x="364" 
d="M210 338v130q-29 5 -55 15t-53.5 29t-44 51.5t-16.5 74.5q0 76 46.5 122t145.5 46q46 0 87.5 -22t41.5 -65q0 -42 -41 -42q-21 0 -32 16t-14 34.5t-16.5 34.5t-38.5 16q-47 0 -74 -34t-27 -96q0 -44 15.5 -76.5t41 -48.5t52 -23t55.5 -7v-155q0 -38 11.5 -48.5
t57.5 -10.5v-27h-217v27q45 0 60 11.5t15 47.5z" />
    <glyph glyph-name="uni02E5" unicode="&#x2e5;" horiz-adv-x="423" 
d="M382 0h-51v626h-282v52h333v-678z" />
    <glyph glyph-name="uni02E6" unicode="&#x2e6;" horiz-adv-x="414" 
d="M374 0h-52v441h-281v51h281v186h52v-678z" />
    <glyph glyph-name="uni02E7" unicode="&#x2e7;" horiz-adv-x="414" 
d="M374 0h-52v313h-281v51h281v314h52v-678z" />
    <glyph glyph-name="uni02E8" unicode="&#x2e8;" horiz-adv-x="414" 
d="M374 0h-52v185h-281v51h281v442h52v-678z" />
    <glyph glyph-name="uni02E9" unicode="&#x2e9;" horiz-adv-x="414" 
d="M374 0h-333v51h281v627h52v-678z" />
    <glyph glyph-name="uni02EC" unicode="&#x2ec;" horiz-adv-x="341" 
d="M318 71l-135 -222h-27l-135 222h74l75 -130h5l73 130h70z" />
    <glyph glyph-name="uni02ED" unicode="&#x2ed;" horiz-adv-x="380" 
d="M342 655h-304v56h304v-56zM342 539h-304v55h304v-55z" />
    <glyph glyph-name="uni02F7" unicode="&#x2f7;" horiz-adv-x="381" 
d="M325 -50h26q-11 -56 -37 -81t-69 -25q-28 0 -69 21.5t-64 21.5q-44 0 -55 -46h-27q8 49 35.5 77t65.5 28q30 0 71.5 -21.5t64.5 -21.5q43 0 58 47z" />
    <glyph glyph-name="uni0300" unicode="&#x300;" 
d="M-246 674l70 -153h-39l-123 135v18h92z" />
    <glyph glyph-name="uni0301" unicode="&#x301;" 
d="M-284 521l70 153h93v-18l-124 -135h-39z" />
    <glyph glyph-name="uni0302" unicode="&#x302;" 
d="M-89 521h-38l-103 98l-102 -98h-39l108 153h66z" />
    <glyph glyph-name="uni0303" unicode="&#x303;" 
d="M-91 642h26q-11 -56 -37 -81t-69 -25q-28 0 -69 21.5t-64 21.5q-44 0 -55 -46h-27q8 49 35.5 77t65.5 28q30 0 71.5 -21.5t64.5 -21.5q43 0 58 47z" />
    <glyph glyph-name="uni0304" unicode="&#x304;" 
d="M-85 555h-290v55h290v-55z" />
    <glyph glyph-name="uni0305" unicode="&#x305;" 
d="M0 555h-400v55h400v-55z" />
    <glyph glyph-name="uni0306" unicode="&#x306;" 
d="M-114 683h30q-8 -80 -42.5 -117t-103.5 -37q-141 0 -147 154h30q14 -55 39 -73t78 -18q52 0 75 17.5t41 73.5z" />
    <glyph glyph-name="uni0307" unicode="&#x307;" 
d="M-174 606q0 -25 -14.5 -40t-40.5 -15q-27 0 -42 15t-15 40t15.5 39.5t41.5 14.5t40.5 -15t14.5 -39z" />
    <glyph glyph-name="uni0308" unicode="&#x308;" 
d="M-65 607q0 -25 -15 -40.5t-41 -15.5t-41 15.5t-15 40.5q0 24 15 39t41 15t41 -15t15 -39zM-285 607q0 -25 -14.5 -40.5t-40.5 -15.5q-27 0 -41.5 15.5t-14.5 40.5q0 24 15 39t41 15q25 0 40 -15t15 -39z" />
    <glyph glyph-name="uni0309" unicode="&#x309;" 
d="M-211 521h-41v58q37 1 51 18.5t14 52.5q0 30 -8 39.5t-22 9.5q-15 0 -24.5 -7.5t-12 -17t-9 -17t-17.5 -7.5q-12 0 -19.5 8.5t-7.5 20.5q0 23 26.5 36.5t62.5 13.5q46 0 69.5 -23t23.5 -58q0 -70 -86 -87v-40z" />
    <glyph glyph-name="uni030A" unicode="&#x30a;" 
d="M-128 629q0 -47 -28.5 -73t-74.5 -26q-44 0 -73 26.5t-29 73.5q0 44 29 71.5t73 27.5q45 0 74 -27.5t29 -72.5zM-172 630q0 28 -15.5 45.5t-43.5 17.5t-43 -17.5t-15 -45.5q0 -63 58 -63q59 0 59 63z" />
    <glyph glyph-name="uni030B" unicode="&#x30b;" 
d="M-325 521l65 153h92v-18l-119 -135h-38zM-192 521l65 153h92v-18l-119 -135h-38z" />
    <glyph glyph-name="uni030C" unicode="&#x30c;" 
d="M-371 678h39l102 -98l103 98h38l-108 -153h-66z" />
    <glyph glyph-name="uni030D" unicode="&#x30d;" 
d="M-202 512h-56v205h56v-205z" />
    <glyph glyph-name="uni030E" unicode="&#x30e;" 
d="M-131 512h-57v205h57v-205zM-274 512h-55v205h55v-205z" />
    <glyph glyph-name="uni030F" unicode="&#x30f;" 
d="M-201 674l65 -153h-38l-119 135v18h92zM-334 674l65 -153h-38l-119 135v18h92z" />
    <glyph glyph-name="uni0310" unicode="&#x310;" 
d="M-114 683h30q-8 -80 -42.5 -117t-103.5 -37q-141 0 -147 154h30q14 -55 39 -73t78 -18q52 0 75 17.5t41 73.5zM-174 694q0 -25 -14.5 -40t-40.5 -15q-27 0 -42 15t-15 40t15.5 39.5t41.5 14.5t40.5 -15t14.5 -39z" />
    <glyph glyph-name="uni0311" unicode="&#x311;" 
d="M-86 519h-30q-23 55 -48 77t-66 22q-93 0 -115 -99h-29q0 76 36 118.5t106 42.5q127 0 146 -161z" />
    <glyph glyph-name="uni0312" unicode="&#x312;" 
d="M-182 748l10 -25q-78 -28 -78 -96q17 6 31 6q22 0 36 -14t14 -38q0 -25 -15.5 -41t-45.5 -16q-70 0 -70 85q0 34 11.5 60t33 41.5t36.5 23t37 14.5z" />
    <glyph glyph-name="uni0313" unicode="&#x313;" 
d="M-280 513l-10 25q78 28 78 96q-17 -6 -31 -6q-22 0 -36 14t-14 38q0 25 15.5 41t45.5 16q70 0 70 -85q0 -34 -11.5 -60t-33 -41.5t-36.5 -23t-37 -14.5z" />
    <glyph glyph-name="uni0314" unicode="&#x314;" 
d="M-170 538l-10 -25q-22 7 -37 14.5t-36.5 23t-33 41.5t-11.5 60q0 85 70 85q30 0 45.5 -16t15.5 -41q0 -24 -14 -38t-36 -14q-15 0 -31 6q0 -68 78 -96z" />
    <glyph glyph-name="uni0315" unicode="&#x315;" 
d="M-244 503l12 194h82v-18q-6 -88 -64 -180z" />
    <glyph glyph-name="uni0316" unicode="&#x316;" 
d="M-246 -56l70 -153h-39l-123 135v18h92z" />
    <glyph glyph-name="uni0317" unicode="&#x317;" 
d="M-272 -209l70 153h93v-18l-124 -135h-39z" />
    <glyph glyph-name="uni0318" unicode="&#x318;" 
d="M-160 -250h-41v78h-101v39h101v78h41v-195z" />
    <glyph glyph-name="uni0319" unicode="&#x319;" 
d="M-260 -250h-41v195h41v-78h101v-39h-101v-78z" />
    <glyph glyph-name="uni031A" unicode="&#x31a;" 
d="M-122 503h-56v145h-161v54h217v-199z" />
    <glyph glyph-name="uni031B" unicode="&#x31b;" 
d="M-184 450v28h63q53 0 53 36q0 18 -15.5 39.5t-15.5 35.5q0 18 12.5 28.5t28.5 10.5q22 0 36.5 -16.5t14.5 -50.5q0 -113 -136 -113q-26 0 -41 2z" />
    <glyph glyph-name="uni031C" unicode="&#x31c;" 
d="M-174 -255h-24q-49 0 -79 26t-30 75t30 74t78 25h25v-38h-22q-32 0 -50 -16t-17 -45q2 -63 67 -63h22v-38z" />
    <glyph glyph-name="uni031D" unicode="&#x31d;" 
d="M-132 -206h-196v39h78v112h41v-112h77v-39z" />
    <glyph glyph-name="uni031E" unicode="&#x31e;" 
d="M-328 -55h196v-39h-77v-112h-41v112h-78v39z" />
    <glyph glyph-name="uni031F" unicode="&#x31f;" 
d="M-132 -172h-79v-80h-39v80h-79v37h79v80h39v-80h79v-37z" />
    <glyph glyph-name="uni0320" unicode="&#x320;" 
d="M-132 -172h-197v37h197v-37z" />
    <glyph glyph-name="uni0321" unicode="&#x321;" 
d="M-235 37h83v-39q0 -119 -42 -176t-130 -57q-49 0 -77.5 19.5t-28.5 52.5q0 19 12 30.5t32 11.5q24 0 49.5 -35t48.5 -35q34 0 43.5 34.5t9.5 124.5v69z" />
    <glyph glyph-name="uni0322" unicode="&#x322;" 
d="M-235 37h83v-69q0 -90 9.5 -124.5t43.5 -34.5q23 0 48.5 35t49.5 35q20 0 32 -11.5t12 -30.5q0 -33 -28.5 -52.5t-77.5 -19.5q-88 0 -130 57t-42 176v39z" />
    </font>
</defs>
</svg>
